Кровь Зевса / Blood of Zeus [02x01-02 из 08] (2024) WEB-DL 1080p от Jaskier | P

Ответить на тему
Статистика раздачи
Размер:  2.59 GB   |    Зарегистрирован:  1 месяц 2 дня   |    Скачано:  0 раза
Список скачавших: Нет
Сидов:  2  [  0 KB/s  ]   Подробная статистика пиров
     
 
Автор Сообщение

солнышко ®

Пол: Женский

Зарегистрированный: 5 года 3 месяца

Сообщений: 712

Создавать темы 13-Май-2024 04:05 | #1 · Автор

[Цитировать]

Информация о фильме
Название: Кровь Зевса
Оригинальное название: Blood of Zeus
Год выхода: 2024
Жанр: мультфильм, боевик, фэнтези
Режиссер: Шант Нигогосян, Джэ Х. Ким, Joshua Covey
В ролях: Дерек Филлипс, Джессика Хенвик, Илайс Туфексис, Джейсон О’Мара, Клаудия Кристиан, Крис Диамантополос, Мэттью Мерсер, Адетокумбо Маккормак, Фред Таташиор, Мэтт Лоу
О фильме:
Житель Древней Греции Герон случайно узнает свое истинное предназначение. Выясняется, что он — сын Зевса, призванный спасти мир от демонической армии.

Страна: США
Студия: Powerhouse Animation Studios, Asia Minor Pictures
Продолжительность: ~00:31:00
Перевод: Профессиональный (многоголосый закадровый) Jaskier
Файл
Кодек: MKV
Качество: WEB-DL 1080p
Видео: AVC, 1920x1080 (16:9), 24.000, ~4703 Kbps
Звук:
Аудио 1: Русский, AC-3, 48 kHz, 6 ch, 384 kbps | Jaskier
Аудио 2: Английский, E-AC-3 JOC, 48 kHz, 6 ch, 768 kbps
Субтитры: Русские, Английские
Семпл

MediaInfo

General
Unique ID : 171921997115319528071854765957164196236 (0x8156F8E45945DD379F072077A89A618C)
Complete name : E:TorrentBlood.of.Zeus.S02.1080p.NF.WEB-DL.DDP5.1.Atmos.H.264-JaskierBlood.of.Zeus.S02E01.A.Shadow.Emerges.1080p.NF.WEB-DL.DDP5.1.Atmos.H.264-Jaskier.mkv
Format : Matroska
Format version : Version 4
File size : 1.30 GiB
Duration : 31 min 2 s
Overall bit rate mode : Variable
Overall bit rate : 5 974 kb/s
Frame rate : 24.000 FPS
Movie name : Boku no Hero Academia - S07E01 - In the Nick of Time! A Big-Time Maverick from the West
Encoded date : 2024-05-12 13:12:01 UTC
Writing application : mkvmerge v6.6.0 ('The Edge Of The In Between') built on Dec 1 2013 17:55:00
Writing library : libebml v1.3.0 + libmatroska v1.4.1
Video
ID : 1
Format : AVC
Format/Info : Advanced Video Codec
Format profile : Main@L4
Format settings : CABAC / 3 Ref Frames
Format settings, CABAC : Yes
Format settings, Reference frames : 3 frames
Codec ID : V_MPEG4/ISO/AVC
Duration : 31 min 2 s
Bit rate mode : Variable
Bit rate : 4 703 kb/s
Nominal bit rate : 5 000 kb/s
Maximum bit rate : 7 500 kb/s
Width : 1 920 pixels
Height : 1 080 pixels
Display aspect ratio : 16:9
Frame rate mode : Constant
Frame rate : 24.000 FPS
Color space : YUV
Chroma subsampling : 4:2:0
Bit depth : 8 bits
Scan type : Progressive
Bits/(Pixel*Frame) : 0.095
Stream size : 1.02 GiB (79%)
Writing library : x264 core 148 r2727 7d026e8
Encoding settings : cabac=1 / ref=3 / deblock=1:0:0 / analyse=0x1:0x111 / me=umh / subme=10 / psy=1 / psy_rd=1.00:0.00 / mixed_ref=1 / me_range=24 / chroma_me=1 / trellis=2 / 8x8dct=0 / cqm=0 / deadzone=21,11 / fast_pskip=1 / chroma_qp_offset=-2 / threads=6 / lookahead_threads=1 / sliced_threads=0 / nr=0 / decimate=1 / interlaced=0 / bluray_compat=0 / stitchable=1 / constrained_intra=0 / bframes=2 / b_pyramid=0 / b_adapt=2 / b_bias=0 / direct=3 / weightb=1 / open_gop=0 / weightp=2 / keyint=240 / keyint_min=121 / scenecut=0 / intra_refresh=0 / rc_lookahead=48 / rc=2pass / mbtree=1 / bitrate=5000 / ratetol=1.0 / qcomp=0.50 / qpmin=6 / qpmax=51 / qpstep=4 / cplxblur=20.0 / qblur=0.5 / vbv_maxrate=7500 / vbv_bufsize=10000 / nal_hrd=vbr / filler=0 / ip_ratio=1.40 / aq=1:1.00
Language : English
Default : Yes
Forced : No
Audio #1
ID : 2
Format : AC-3
Format/Info : Audio Coding 3
Commercial name : Dolby Digital
Codec ID : A_AC3
Duration : 31 min 2 s
Bit rate mode : Constant
Bit rate : 384 kb/s
Channel(s) : 6 channels
Channel layout : L R C LFE Ls Rs
Sampling rate : 48.0 kHz
Frame rate : 31.250 FPS (1536 SPF)
Compression mode : Lossy
Stream size : 85.2 MiB (6%)
Title : Jaskier
Language : Russian
Service kind : Complete Main
Default : Yes
Forced : No
Audio #2
ID : 3
Format : E-AC-3 JOC
Format/Info : Enhanced AC-3 with Joint Object Coding
Commercial name : Dolby Digital Plus with Dolby Atmos
Codec ID : A_EAC3
Duration : 31 min 2 s
Bit rate mode : Constant
Bit rate : 768 kb/s
Channel(s) : 6 channels
Channel layout : L R C LFE Ls Rs
Sampling rate : 48.0 kHz
Frame rate : 31.250 FPS (1536 SPF)
Compression mode : Lossy
Stream size : 170 MiB (13%)
Title : Original
Language : English
Service kind : Complete Main
Default : No
Forced : No
Complexity index : 16
Number of dynamic objects : 15
Bed channel count : 1 channel
Bed channel configuration : LFE
Text #1
ID : 4
Format : UTF-8
Codec ID : S_TEXT/UTF8
Codec ID/Info : UTF-8 Plain Text
Language : Russian
Default : No
Forced : No
Text #2
ID : 5
Format : UTF-8
Codec ID : S_TEXT/UTF8
Codec ID/Info : UTF-8 Plain Text
Language : English
Default : No
Forced : No

Скриншоты

Jaskier
Кровь Зевса / Blood of Zeus [02x01-02 из 08] (2024) WEB-DL 1080p от Jaskier | P [rutor.su-47704].torrent 
Торрент: Зарегистрирован [ 2024-05-13 04:05 ]

info_hash: AA38CE4A08189D173CEA15E64AFC43D89C2D73A9

Скачать .torrent

Скачать

14 KB

Статус: проверено · MAGNAT · 27 дня назад
Скачано: 0 раза
Размер: 2.59 GB
[Профиль] [ЛС]
Показать сообщения:    
Ответить на тему

Текущее время: 15-Июн 09:37

Часовой пояс: UTC ± 0



Вы не можете начинать темы
Вы не можете отвечать на сообщения
Вы не можете редактировать свои сообщения
Вы не можете удалять свои сообщения
Вы не можете голосовать в опросах
Вы не можете прикреплять файлы к сообщениям
Вы можете скачивать файлы

[  Время выполнения: 0.1048 сек  |  MySQL: 0.0690 сек (66%) · 11 запр.  |  сжатие Gzip: выкл  |  Память: 429.66 KB / 2.36 MB / 1.44 MB  ] |  |  |