(Synth-Pop, Disco) [CD] Modern Talking - Let's Talk About Love & Romantic Warriors - 2000, FLAC (image+.cue), lossless

Ответить на тему
Статистика раздачи
Размер:  487 MB   |    Зарегистрирован:  1 месяц 3 дня   |    Скачано:  2 раза
Список скачавших: Нет

Полного источника не было: Никогда

     
 
Автор Сообщение

MAGNAT ®

Пол: Мужской

Зарегистрированный: 5 года 2 месяца

Сообщений: 20033

Откуда: Москва

Создавать темы 11-Май-2024 13:42 | #1 · Автор

[Цитировать]

Modern Talking / Let's Talk About Love & Romantic Warriors
Жанр: Synth-pop, Disco
Носитель: CD
Страна-производитель диска (релиза): Россия
Год издания: 2000
Издатель (лейбл): CD-Maximum
Номер по каталогу: CDM 0900-489
Страна исполнителя (группы): Germany
Аудиокодек: FLAC (*.flac)
Тип рипа: image+.cue
Продолжительность: 01:17:12
Источник: собственный рип
Наличие сканов в содержимом раздачи: да
Треклист:
01. Cheri Cheri Lady [03:49]
02. With A Little Love [03:36]
03. Wild Wild Water [04:21]
04. You're The Lady Of My Heart [03:21]
05. Just Like An Angel [03:17]
06. Heaven Will Know [04:04]
07. Love Don't Live Here Anymore [04:23]
08. Why Did You Do It Just Tonight [04:25]
09. Don't Give Up [03:22]
10. Let's Talk About Love [03:57]
11. Jet Airliner [04:24]
12. Like A Hero [03:49]
13. Don't Worry [03:37]
14. Blinded By Your Love [04:03]
15. Romantic Warriors [04:01]
16. Arabian Gold [03:44]
17. We Still Have Dreams [03:10]
18. Operator Gimme 609 [03:43]
19. You And Me [04:05]
20. Charlene [03:51]

Лог создания рипа

Exact Audio Copy V1.0 beta 3 from 29. August 2011
Отчёт EAC об извлечении, выполненном 3. октября 2019, 9:40
Modern Talking / Let's Talk About Love & Romantic Warriors
Дисковод: Optiarc DVD RW AD-7280S Adapter: 1 ID: 0
Режим чтения : Достоверность
Использование точного потока : Да
Отключение кэша аудио : Да
Использование указателей C2 : Нет
Коррекция смещения при чтении : 48
Способность читать области Lead-in и Lead-out : Нет
Заполнение пропущенных сэмплов тишиной : Да
Удаление блоков с тишиной в начале и конце : Нет
При вычислениях CRC использовались нулевые сэмплы : Да
Интерфейс : Встроенный Win32-интерфейс для Win NT/2000
Выходной формат : Пользовательский кодировщик
Выбранный битрейт : 768 kBit/s
Качество : Высокий
Добавление ID3-тега : Нет
Утилита сжатия : C:\\Program Files (x86)\\Exact Audio Copy\\FLAC\\FLAC.EXE
Дополнительные параметры : -8 -V -T "ARTIST=%artist%" -T "TITLE=%title%" -T "ALBUM=%albumtitle%" -T "DATE=%year%" -T "TRACKNUMBER=%tracknr%" -T "GENRE=%genre%" -T "COMMENT=%comment%" -T "BAND=%albuminterpret%" -T "ALBUMARTIST=%albuminterpret%" -T "COMPOSER=%composer%" %haslyrics%--tag-from-file=LYRICS="%lyricsfile%"%haslyrics% -T "DISCNUMBER=%cdnumber%" -T "TOTALDISCS=%totalcds%" -T "TOTALTRACKS=%numtracks%" %hascover%--picture="%coverfile%"%hascover% %source% -o %dest%
TOC извлечённого CD
Трек | Старт | Длительность | Начальный сектор | Конечный сектор
---------------------------------------------------------------------
1 | 0:00.00 | 3:49.62 | 0 | 17236
2 | 3:49.62 | 3:36.15 | 17237 | 33451
3 | 7:26.02 | 4:21.23 | 33452 | 53049
4 | 11:47.25 | 3:21.60 | 53050 | 68184
5 | 15:09.10 | 3:17.26 | 68185 | 82985
6 | 18:26.36 | 4:04.44 | 82986 | 101329
7 | 22:31.05 | 4:23.40 | 101330 | 121094
8 | 26:54.45 | 4:25.46 | 121095 | 141015
9 | 31:20.16 | 3:22.54 | 141016 | 156219
10 | 34:42.70 | 3:57.25 | 156220 | 174019
11 | 38:40.20 | 4:24.40 | 174020 | 193859
12 | 43:04.60 | 3:49.53 | 193860 | 211087
13 | 46:54.38 | 3:37.60 | 211088 | 227422
14 | 50:32.23 | 4:03.51 | 227423 | 245698
15 | 54:35.74 | 4:01.39 | 245699 | 263812
16 | 58:37.38 | 3:44.68 | 263813 | 280680
17 | 62:22.31 | 3:10.17 | 280681 | 294947
18 | 65:32.48 | 3:43.05 | 294948 | 311677
19 | 69:15.53 | 4:05.02 | 311678 | 330054
20 | 73:20.55 | 3:51.66 | 330055 | 347445
Характеристики диапазона извлечения и сообщения об ошибках
Выбранный диапазон
Имя файла D:\\РАЗДАЧИ\\Modern Talking-Let's Talk About Love & Romantic Warriors (2000)\\Modern Talking - Let's Talk About Love & Romantic Warriors.wav
Пиковый уровень 83.2 %
Скорость извлечения 3.6 X
Качество диапазона 100.0 %
CRC теста FC516517
CRC копии FC516517
Копирование... OK
Ошибок не произошло
AccurateRip: сводка
Трек 1 точность не определена (достоверность 2) [FC3BC84C], AccurateRip вернул [697D5EE1] (AR v2)
Трек 2 точность не определена (достоверность 2) [7AE22EFF], AccurateRip вернул [78363980] (AR v2)
Трек 3 точность не определена (достоверность 2) [10D904D9], AccurateRip вернул [E5531799] (AR v2)
Трек 4 точность не определена (достоверность 2) [A16DD66C], AccurateRip вернул [D353F40D] (AR v2)
Трек 5 точность не определена (достоверность 2) [C0D373D2], AccurateRip вернул [637BA152] (AR v2)
Трек 6 точность не определена (достоверность 2) [A78AF489], AccurateRip вернул [2F80A63E] (AR v2)
Трек 7 точность не определена (достоверность 2) [D4BDD978], AccurateRip вернул [8E9334C7] (AR v2)
Трек 8 точность не определена (достоверность 2) [0A58B5F6], AccurateRip вернул [1066E7C1] (AR v2)
Трек 9 точность не определена (достоверность 2) [D4E32611], AccurateRip вернул [AE3E9AF7] (AR v2)
Трек 10 точность не определена (достоверность 2) [86516626], AccurateRip вернул [71C08DEA] (AR v2)
Трек 11 точность не определена (достоверность 2) [E88A85A5], AccurateRip вернул [0E67ED5D] (AR v2)
Трек 12 точность не определена (достоверность 2) [2EBDDF8A], AccurateRip вернул [5DD41E49] (AR v2)
Трек 13 точность не определена (достоверность 1) [806CD033], AccurateRip вернул [07395C91] (AR v2)
Трек 14 точность не определена (достоверность 1) [49B07778], AccurateRip вернул [DAC3B9B5] (AR v2)
Трек 15 точность не определена (достоверность 1) [BDDE45B2], AccurateRip вернул [5BF81F6B] (AR v2)
Трек 16 точность не определена (достоверность 1) [1E5AAE58], AccurateRip вернул [C1093737] (AR v2)
Трек 17 точность не определена (достоверность 1) [50D4A683], AccurateRip вернул [92DFC6A6] (AR v2)
Трек 18 точность не определена (достоверность 1) [80DD1370], AccurateRip вернул [69DAE7E7] (AR v2)
Трек 19 точность не определена (достоверность 1) [813072A2], AccurateRip вернул [DD38FCB8] (AR v2)
Трек 20 точность не определена (достоверность 1) [760167FC], AccurateRip вернул [0EBD0168] (AR v2)
(Synth-Pop, Disco) [CD] Modern Talking - Let's Talk About Love & Romantic Warriors - 2000, FLAC (image+.cue), lossless [rutor.su-47686].torrent 
Торрент: Зарегистрирован [ 2024-05-11 13:42 ]

info_hash: 19E40FDC50A25D7532809C79F4C3B5275CBEF184

Скачать .torrent

Скачать

20 KB

Статус: проверено · MAGNAT · 1 месяц 3 дня назад
Скачано: 2 раза
Размер: 487 MB
[Профиль] [ЛС]
Показать сообщения:    
Ответить на тему

Текущее время: 15-Июн 10:32

Часовой пояс: UTC ± 0



Вы не можете начинать темы
Вы не можете отвечать на сообщения
Вы не можете редактировать свои сообщения
Вы не можете удалять свои сообщения
Вы не можете голосовать в опросах
Вы не можете прикреплять файлы к сообщениям
Вы можете скачивать файлы

[  Время выполнения: 0.0963 сек  |  MySQL: 0.0649 сек (67%) · 10 запр.  |  сжатие Gzip: выкл  |  Память: 429.66 KB / 2.36 MB / 1.44 MB  ] |  |  |