Эбигейл / Abigail (Мэттью Беттинелли, Тайлер Джиллетт) [2024, ужасы, триллер, BDRip] MVO (TVShows) + Sub (Rus/Eng)

Ответить на тему
Статистика раздачи
   
 
Автор Сообщение

Kon912 ®

Пол: Не указан

Зарегистрированный: 5 месяца 8 дня

Сообщений: 2846

Создавать темы 09-Июл-2024 22:21 | #1 · Автор

[Цитировать]

Эбигейл / Abigail-
Год выпуска: 2024
Страна: США, Ирландия, Канада
Студия: Project X Entertainment, Québec Production Services Tax Credit, Radio Silence Productions, Wild Atlantic Pictures
Жанр: ужасы, триллер
Продолжительность: 01:49:32
Перевод: Профессиональный (многоголосый закадровый) | TVShows-Режиссер:
Мэттью Беттинелли, Тайлер Джиллетт-В ролях:
Мелисса Баррера, Дэн Стивенс, Алиша Вейр, Уильям Кэтлетт, Кэтрин Ньютон, Кевин Дюран, Ангус Клауд, Джанкарло Эспозито, Мэттью Гуд-О фильме:
Банда преступников похищает 12-летнюю балерину, дочь криминального авторитета. Спрятавшись в уединённом особняке, они ещё не догадываются, что влиятельный отец девочки — далеко не главная их проблема.- -Качество: BDRip | Abigail 2024 1080p BluRay REMUX AVC Atmos-TRiToN
Формат: AVI
Видео: 720x304 (2.35:1), 23.976 fps, XviD MPEG-4 ~ 1519 kbps avg, 0.289 bit/pixel, build 74
Аудио: 48 kHz, AC3, 5.1, 384 Kbps | Многоголосый Закадровый | TVShows | RUS |
Субтитры: Русские (full (stirlooo 18+)), английские (full), [отдельно]-

Скриншоты

MI

Общее
Полное имя : D:TorrentsAbigail.2024.BDRip_от New-TeamAbigail.2024.BDRip_от New-Team.avi
Формат : AVI
Формат/Информация : Audio Video Interleave
Размер файла : 1,46 Гбайт
Продолжительность : 1 ч. 49 м.
Общий поток : 1 912 Кбит/сек
Программа кодирования : VirtualDubMod 1.5.10.2 (build 2540/release)
Библиотека кодирования : VirtualDubMod build 2540/release
Видео
Идентификатор : 0
Формат : MPEG-4 Visual
Профиль формата : Advanced Simple@L5
Настройки формата : BVOP1 / Custom Matrix
Параметр BVOP формата : 1
Параметр QPel формата : Нет
Параметр GMC формата : Без точки перехода
Параметр матрицы формата : Выборочная
Идентификатор кодека : XVID
Идентификатор кодека/Подсказка : XviD
Продолжительность : 1 ч. 49 м.
Битрейт : 1 519 Кбит/сек
Ширина : 720 пикселей
Высота : 304 пикселя
Соотношение сторон : 2,35:1
Частота кадров : 23,976 (24000/1001) кадра/сек
Цветовое пространство : YUV
Субдискретизация насыщенности : 4:2:0
Битовая глубина : 8 бит
Тип развёртки : Прогрессивная
Метод сжатия : С потерями
Бит/(Пиксели*Кадры) : 0.289
Размер потока : 1,16 Гбайт (79%)
Библиотека кодирования : XviD 74
Аудио
Идентификатор : 1
Формат : AC-3
Формат/Информация : Audio Coding 3
Коммерческое название : Dolby Digital
Идентификатор кодека : 2000
Продолжительность : 1 ч. 49 м.
Вид битрейта : Постоянный
Битрейт : 384 Кбит/сек
Каналы : 6 каналов
Channel layout : L R C LFE Ls Rs
Частота : 48,0 КГц
Частота кадров : 31,250 кадров/сек (1536 SPF)
Метод сжатия : С потерями
Размер потока : 301 Мбайт (20%)
Выравнивание : Разделение по промежуткам
Продолжительность промежутка : 42 мс. (1,00 видеокадр)
Время предзагрузки промежутка : 500 мс.
Service kind : Complete Main
[Профиль] [ЛС]
Показать сообщения:    
Ответить на тему

Текущее время: 14-Июл 03:46

Часовой пояс: UTC ± 0



Вы не можете начинать темы
Вы не можете отвечать на сообщения
Вы не можете редактировать свои сообщения
Вы не можете удалять свои сообщения
Вы не можете голосовать в опросах
Вы не можете прикреплять файлы к сообщениям
Вы не можете скачивать файлы

[  Время выполнения: 0.0343 сек  |  MySQL: 0.0047 сек (14%) · 4 запр.  |  сжатие Gzip: выкл  |  Память: 429.85 KB / 1.99 MB / 1.33 MB  ] |  |  |