Исправление и наказание / Сезон: 1 / Серии: 1-16 из 16 + Фильм о фильме (Анна Пармас) [2022, драма, комедия, WEBRip 1080p]

Ответить на тему
Статистика раздачи
Размер:  18.77 GB   |    Зарегистрирован:  12 дня   |    Скачано:  1 раз
Список скачавших: Нет
Сидов:  1  [  0 KB/s  ]   Подробная статистика пиров
     
 
Автор Сообщение

Kon912 ®

Пол: Не указан

Зарегистрированный: 5 месяца 8 дня

Сообщений: 2846

Создавать темы 01-Июл-2024 19:45 | #1 · Автор

[Цитировать]

Исправление и наказание- Год выпуска: 2022
Производство: Россия, Производство ООО «Гуд Стори Медиа»
Жанр: Драма, комедия
Продолжительность: 17 х ~ 00:30:00
Субтитры: Отсутствуют-Режиссёр: Анна Пармас
В ролях: Анна Михалкова, Тимофей Трибунцев, Наталья Бардо, Татьяна Лютаева, Владислав Прохоров, Александра Макарская, Борис Каморзин, Галина Данилова, Ольга Виниченко, Андрей Пынзару, Игорь Грабузов, Аграфена Петровская, Артур Ваха, Александр Добровинский, Владимир Терещенко, Бесо Гатаев, Баин Бовальдинов, Сергей Фролов, Олег Кассин, Сергей Аброскин, Ольга Альбанова, Алексей Шило, Ирина Чипиженко, Аслан Бижоев, Алексей Шемес, Михаил Трухин, Наталья Кучеренко, Станислав Назиров, Ямур Гильмутдинов, Лара Шум, Андрей Железный, Михаил Коновалов, Елена Соловьева (II),...-Описание: Согласно сюжету, после похорон главы семейства семья олигарха хотела начать делить наследство. Однако все деньги оказались за рубежом на запароленных счетах. Родственники умершего богача подумали, что большую часть наследства он мог оставить внебрачной дочери, которая живет в глубинке. Оказалось, что она работает заместителем начальника колонии. В попытках «выбить» наследство, они поджигают дом своей родственницы. Но в итоге они получили тюремный срок в колонии, где и работает внебрачная дочь их отца.-| | | | | |-Премьера: 14 марта 2022 года
Реклама: Отсутствует-Качество: WEBRip 1080p
Формат: MKV
Видео кодек: H.264
Аудио кодек: AC3
Видео: MPEG-4 AVC, 1920x1080, ~ 6480 Кбит/с, 0.125 bit/pixel, 25 Кадр/с
Аудио: AC3, 48,0 КГц, 2 ch, 256 Кбит/с
-

Скриншоты

-

MI

Общее
Уникальный идентификатор : 295040723358353832466980630318268300089 (0xDDF6C6C1B04380F16C6F96989D643B39)
Полное имя : D:\\Ispravlenie.i.nakazanie.S01.2022.WEBRip.1080p\\Ispravlenie.i.nakazanie.S01.E01.2022.WEBRip.1080p.mkv
Формат : Matroska
Версия формата : Version 4
Размер файла : 1,14 Гбайт
Продолжительность : 24 м. 55 с.
Общий поток : 6 558 Кбит/сек
Название фильма : Ispravlenie.i.nakazanie.S01.E01.2022.WEBRip.1080p
Дата кодирования : UTC 2022-03-14 19:36:35
Программа кодирования : mkvmerge v66.0.0 ('Josie') 64-bit
Библиотека кодирования : libebml v1.4.2 + libmatroska v1.6.4
Attachments : poster.jpg
Видео
Идентификатор : 1
Формат : AVC
Формат/Информация : Advanced Video Codec
Профиль формата : High@L4
Настройки формата : CABAC / 4 Ref Frames
Параметр CABAC формата : Да
Параметр RefFrames формата : 4 кадра
Идентификатор кодека : V_MPEG4/ISO/AVC
Продолжительность : 24 м. 55 с.
Битрейт : 6 480 Кбит/сек
Ширина : 1 920 пикселей
Высота : 1 080 пикселей
Соотношение сторон : 16:9
Режим частоты кадров : Постоянный
Частота кадров : 25,000 кадров/сек
Цветовое пространство : YUV
Субдискретизация насыщенности : 4:2:0
Битовая глубина : 8 бит
Тип развёртки : Прогрессивная
Бит/(Пиксели*Кадры) : 0.125
Размер потока : 1,10 Гбайт (96%)
Библиотека кодирования : x264 core 161
Настройки программы : cabac=1 / ref=2 / deblock=1:0:0 / analyse=0x3:0x113 / me=hex / subme=6 / psy=1 / psy_rd=1.00:0.00 / mixed_ref=1 / me_range=16 / chroma_me=1 / trellis=1 / 8x8dct=1 / cqm=0 / deadzone=21,11 / fast_pskip=1 / chroma_qp_offset=-2 / threads=12 / lookahead_threads=2 / sliced_threads=0 / nr=0 / decimate=1 / interlaced=0 / bluray_compat=0 / constrained_intra=0 / bframes=3 / b_pyramid=2 / b_adapt=1 / b_bias=0 / direct=1 / weightb=1 / open_gop=0 / weightp=1 / keyint=250 / keyint_min=25 / scenecut=40 / intra_refresh=0 / rc_lookahead=30 / rc=abr / mbtree=1 / bitrate=6480 / ratetol=1.0 / qcomp=0.60 / qpmin=0 / qpmax=69 / qpstep=4 / vbv_maxrate=7776 / vbv_bufsize=15552 / nal_hrd=none / filler=0 / ip_ratio=1.40 / aq=1:1.00
Default : Да
Forced : Нет
Цветовой диапазон : Limited
Основные цвета : BT.709
Характеристики трансфера : BT.709
Коэффициенты матрицы : BT.709
Аудио
Идентификатор : 2
Формат : AC-3
Формат/Информация : Audio Coding 3
Коммерческое название : Dolby Digital
Идентификатор кодека : A_AC3
Продолжительность : 24 м. 55 с.
Вид битрейта : Постоянный
Битрейт : 256 Кбит/сек
Каналы : 2 канала
Channel layout : L R
Частота : 48,0 КГц
Частота кадров : 31,250 кадров/сек (1536 SPF)
Метод сжатия : С потерями
Задержка видео : -80 мс.
Размер потока : 45,6 Мбайт (4%)
Service kind : Complete Main
Default : Да
Forced : Нет
-
Исправление и наказание / Сезон: 1 / Серии: 1-16 из 16 + Фильм о фильме (Анна Пармас) [2022, драма, комедия, WEBRip 1080p] [rutor.su-48465].torrent 
Торрент: Зарегистрирован [ 2024-07-01 19:45 ]

info_hash: F83C3622FF164F1F0188EE75152E0B1999F39A12

Скачать .torrent

Скачать

49 KB

Статус: проверено · Kon912 · 12 дня назад
Скачано: 1 раз
Размер: 18.77 GB
[Профиль] [ЛС]
Показать сообщения:    
Ответить на тему

Текущее время: 14-Июл 05:36

Часовой пояс: UTC ± 0



Вы не можете начинать темы
Вы не можете отвечать на сообщения
Вы не можете редактировать свои сообщения
Вы не можете удалять свои сообщения
Вы не можете голосовать в опросах
Вы не можете прикреплять файлы к сообщениям
Вы можете скачивать файлы

[  Время выполнения: 0.0407 сек  |  MySQL: 0.0110 сек (27%) · 8 запр.  |  сжатие Gzip: выкл  |  Память: 429.85 KB / 2.36 MB / 1.44 MB  ] |  |  |