Анатомия страсти / Grey's Anatomy / Сезон: 20 / Серии: 1-10 из 10 (Роб Корн) [2024, США, драма, мелодрама, WEB-DL 1080p] MVO (TVShows) + Original + Sub (Eng)

Ответить на тему
Статистика раздачи
Размер:  29.91 GB   |    Зарегистрирован:  13 дня   |    Скачано:  2 раза
Список скачавших: Нет
Сидов:  3  [  0 KB/s  ]   Личеров:  2  [  0 KB/s  ]   Подробная статистика пиров
   
 
Автор Сообщение

Kon912 ®

Пол: Не указан

Зарегистрированный: 5 месяца 8 дня

Сообщений: 2846

Создавать темы 30-Июн-2024 22:46 | #1 · Автор

[Цитировать]

Анатомия страсти | Grey's Anatomy
«Operations. Relations. Complications»
- Производство: США
Год выпуска: 2024
Жанр: драма, мелодрама
Продолжительность: ~ 00:43:00 серия-Премьера (мир): 27 марта 2005, «AMC»
Премьера (РФ): 16 апреля 2007-Перевод:
• Профессиональный (многоголосый закадровый) | TVShows-Режиссёр: Роб Корн, Кевин МакКидд, Дебби Аллен-В ролях: Эллен Помпео (Ellen Pompeo), Шандра Уилсон (Chandra Wilson), Джеймс Пикенс мл. (James Pickens Jr.), Джастин Чэмберс (Justin Chambers), Кевин МакКидд (Kevin McKidd), Джесси Уильямс (Jesse Williams), Камилла Ладдингтон (Camilla Luddington), Патрик Демпси (Patrick Dempsey), Сара Рамирес (Sara Ramirez), Джессика Кэпшоу (Jessica Capshaw), Сандра О (Sandra Oh)-Описание:
Сюжет сериала рассказывает о трудовых буднях врачей и интернов одной из городских больниц Сиэтла. Среди начинающих врачей оказывается и молодая женщина по имени Мередит Грей, которая далеко не случайно выбрала эту профессию. Девушка пошла по стопам своей матери Эллис Грэй, которая трудится в этой же больнице и является известным хирургом.
Мередит очень быстро находит себе друзей среди таких же начинающих врачей, как и она сама. Вместе им предстоит пройти интернатуру, каждый день помогая друг другу не только по работе, но и в личной жизни. Ведь кроме того, что врачи вынуждены каждый день спасать человеческие жизни, они такие же люди как и все, и им не чужда обычная человеческая жизнь…- -Качество видео: WEB-DL 1080p
Формат: MKV
Видео: AVC, 1920 x 1080 (1.778) at 23.976 fps, ~8 454 kbps
Аудио Rus: AC-3, 48 kHz, 6 ch, 384 kbps |TVShows|
Аудио Eng: Е-AC-3, 48 kHz, 6 ch, 640 kbps |Original|
Субтитры: Eng (Full, SDH)
Реклама: Отсутствует

-

MediaInfo:

Общее
Уникальный идентификатор : 124378942980594704135550948723613879770 (0x5D928358CD3A6DDB7C2AEAD6A031CDDA)
Полное имя : E:\\_Сериалы\\_Сериалы\\Анатомия страсти\\Greys.Anatomy.S20.WEBDL.1080p\\Greys.Anatomy.S20E01.WEBDL.1080p.RGzsRutracker.mkv
Формат : Matroska
Версия формата : Version 4
Размер файла : 2,87 Гбайт
Продолжительность : 43 мин. 17 с.
Общий битрейт : 9 481 Кбит/сек
Частота кадров : 23,976 кадра/сек
Дата кодирования : 2024-06-15 09:31:35 UTC
Программа кодирования : mkvmerge v85.0 ('Shame For You') 64-bit
Библиотека кодирования : libebml v1.4.5 + libmatroska v1.7.1
Видео
Идентификатор : 1
Формат : AVC
Формат/Информация : Advanced Video Codec
Профиль формата : High@L4
Настройки формата : CABAC / 4 Ref Frames
Параметр CABAC формата : Да
Параметр RefFrames формата : 4 кадра
Идентификатор кодека : V_MPEG4/ISO/AVC
Продолжительность : 43 мин. 17 с.
Вид битрейта : Постоянный
Битрейт : 8 454 Кбит/сек
Номинальный битрейт : 10 000 Кбит/сек
Ширина : 1 920 пикселей
Высота : 1 080 пикселей
Соотношение сторон дисплея : 16:9
Режим частоты кадров : Постоянный
Частота кадров : 23,976 (24000/1001) кадра/сек
Цветовое пространство : YUV
Цветовая субдискретизация : 4:2:0
Битовая глубина : 8 бит
Тип развёртки : Прогрессивная
Бит/(Пиксели*Кадры) : 0.170
Размер потока : 2,56 Гбайт (89%)
Язык : Английский (US)
По умолчанию : Да
Принудительно : Нет
Цветовой диапазон : Limited
Основные цвета : BT.709
Характеристики трансфера : BT.709
Коэффициенты матрицы : BT.709
Аудио #1
Идентификатор : 2
Формат : AC-3
Формат/Информация : Audio Coding 3
Коммерческое название : Dolby Digital
Идентификатор кодека : A_AC3
Продолжительность : 43 мин. 17 с.
Вид битрейта : Постоянный
Битрейт : 384 Кбит/сек
Канал(-ы) : 6 каналов
Расположение каналов : L R C LFE Ls Rs
Частота дискретизации : 48,0 КГц
Частота кадров : 31,250 кадров/сек (1536 SPF)
Метод сжатия : С потерями
Размер потока : 119 Мбайт (4%)
Заголовок : TVS
Язык : Русский
Вид сервиса : Complete Main
По умолчанию : Да
Принудительно : Нет
Нормализация звука речи : -31 dB
cmixlev : -4.5 dB
surmixlev : -6 dB
dialnorm_Average : -31 dB
dialnorm_Minimum : -31 dB
dialnorm_Maximum : -31 dB
Аудио #2
Идентификатор : 3
Формат : E-AC-3
Формат/Информация : Enhanced AC-3
Коммерческое название : Dolby Digital Plus
Идентификатор кодека : A_EAC3
Продолжительность : 43 мин. 17 с.
Вид битрейта : Постоянный
Битрейт : 640 Кбит/сек
Канал(-ы) : 6 каналов
Расположение каналов : L R C LFE Ls Rs
Частота дискретизации : 48,0 КГц
Частота кадров : 31,250 кадров/сек (1536 SPF)
Метод сжатия : С потерями
Размер потока : 198 Мбайт (7%)
Заголовок : Eng
Язык : Английский
Вид сервиса : Complete Main
По умолчанию : Нет
Принудительно : Нет
Нормализация звука речи : -31 dB
compr : -0.28 dB
dialnorm_Average : -31 dB
dialnorm_Minimum : -31 dB
dialnorm_Maximum : -31 dB
Текст #1
Идентификатор : 4
Формат : UTF-8
Идентификатор кодека : S_TEXT/UTF8
Идентификатор кодека/Информация : UTF-8 Plain Text
Продолжительность : 42 мин. 28 с.
Битрейт : 104 бит/сек
Частота кадров : 0,322 кадр/сек
Число элементов : 821
Размер потока : 32,5 КиБ (0%)
Заголовок : Eng
Язык : Английский (US)
По умолчанию : Нет
Принудительно : Нет
Текст #2
Идентификатор : 5
Формат : UTF-8
Идентификатор кодека : S_TEXT/UTF8
Идентификатор кодека/Информация : UTF-8 Plain Text
Продолжительность : 42 мин. 28 с.
Битрейт : 112 бит/сек
Частота кадров : 0,338 кадр/сек
Число элементов : 861
Размер потока : 35,0 КиБ (0%)
Заголовок : SDH
Язык : Английский (US)
По умолчанию : Нет
Принудительно : Нет
Меню
00:01:01.000 : en:Scene 1
00:43:12.000 : en:End Credits
-

Скриншоты:

-Приятного просмотра!!!
Анатомия страсти / Grey's Anatomy / Сезон: 20 / Серии: 1-10 из 10 (Роб Корн) [2024, США, драма, мелодрама, WEB-DL 1080p] MVO (TVShows) + Original + Sub (Eng) [rutor.su-48448].torrent 
Торрент: Зарегистрирован [ 2024-06-30 22:46 ]

info_hash: 1C56865D50ACABC18FCB12560C05294406C1AC9A

Скачать .torrent

Скачать

76 KB

Статус: проверено · Kon912 · 13 дня назад
Скачано: 2 раза
Размер: 29.91 GB
[Профиль] [ЛС]
Показать сообщения:    
Ответить на тему

Текущее время: 14-Июл 04:05

Часовой пояс: UTC ± 0



Вы не можете начинать темы
Вы не можете отвечать на сообщения
Вы не можете редактировать свои сообщения
Вы не можете удалять свои сообщения
Вы не можете голосовать в опросах
Вы не можете прикреплять файлы к сообщениям
Вы можете скачивать файлы

[  Время выполнения: 0.0523 сек  |  MySQL: 0.0152 сек (29%) · 8 запр.  |  сжатие Gzip: выкл  |  Память: 429.85 KB / 2.37 MB / 1.45 MB  ] |  |  |