(Rock) [CD] Карабас и НесуРазности (ex. Х.. забей) - Дискография (10 CD) - 2018-2023, FLAC (image+.cue), lossless

Ответить на тему
Статистика раздачи
   
 
Автор Сообщение

MAGNAT ®

Пол: Мужской

Зарегистрированный: 5 года 3 месяца

Сообщений: 20055

Откуда: Москва

Создавать темы 03-Май-2024 14:44 | #1 · Автор

[Цитировать]

Карабас и НесуРазности / Дискография (10 CD)
Жанр: Rock
Носитель: CD
Страна-производитель диска (релиза): Россия
Год издания: 2018-2023
Страна исполнителя (группы): Россия
Аудиокодек: FLAC (*.flac)
Тип рипа: image+.cue
Продолжительность: 04:12:46
Источник: собственный рип
Наличие сканов в содержимом раздачи: да

2018. Карабас - Занялотдай

Год издания: 2018
Издатель (лейбл): Авторское издание
Номер по каталогу: KRBS-CD-01
Продолжительность: 00:31:15
Треклист:
1. Да Кеды
2. Красота
3. Соседка
4. И Колотить
5. Оригами
6. Будь умней
7. Страдают люди
8. Нравы
9. Гаечка
10. В цирке
11. Долги
12. Огурцова Машка
13. Лежало
14. Вуаль
15. Мускул
16. Джаз
17. Вася
18. У памятника
19. Котяра
20. Конец
21. Из Парижа

Лог создания рипа

Exact Audio Copy V1.3 from 2. September 2016
Отчёт EAC об извлечении, выполненном 14. февраля 2023, 19:02
Карабас / Занялотдай
Дисковод: ATAPI DVD A DH16A6S Adapter: 1 ID: 0
Режим чтения : Достоверность
Использование точного потока : Да
Отключение кэша аудио : Да
Использование указателей C2 : Нет
Коррекция смещения при чтении : 6
Способность читать области Lead-in и Lead-out : Нет
Заполнение пропущенных сэмплов тишиной : Да
Удаление блоков с тишиной в начале и конце : Нет
При вычислениях CRC использовались нулевые сэмплы : Да
Интерфейс : Встроенный Win32-интерфейс для Win NT/2000
Выходной формат : Пользовательский кодировщик
Выбранный битрейт : 128 kBit/s
Качество : Высокий
Добавление ID3-тега : Нет
Утилита сжатия : C:\\Program Files\\Exact Audio Copy\\FLAC\\FLAC.EXE
Дополнительные параметры : -V -8 -T "Date=%year%" -T "Genre=%genre%" %source%
TOC извлечённого CD
Трек | Старт | Длительность | Начальный сектор | Конечный сектор
---------------------------------------------------------------------
1 | 0:00.00 | 2:26.54 | 0 | 11003
2 | 2:26.54 | 0:51.18 | 11004 | 14846
3 | 3:17.72 | 2:12.71 | 14847 | 24817
4 | 5:30.68 | 1:46.68 | 24818 | 32835
5 | 7:17.61 | 1:22.29 | 32836 | 39014
6 | 8:40.15 | 1:04.23 | 39015 | 43837
7 | 9:44.38 | 0:54.17 | 43838 | 47904
8 | 10:38.55 | 0:58.06 | 47905 | 52260
9 | 11:36.61 | 1:09.05 | 52261 | 57440
10 | 12:45.66 | 1:35.46 | 57441 | 64611
11 | 14:21.37 | 1:43.35 | 64612 | 72371
12 | 16:04.72 | 1:12.47 | 72372 | 77818
13 | 17:17.44 | 1:00.15 | 77819 | 82333
14 | 18:17.59 | 1:00.70 | 82334 | 86903
15 | 19:18.54 | 1:17.20 | 86904 | 92698
16 | 20:35.74 | 1:59.54 | 92699 | 101677
17 | 22:35.53 | 1:11.50 | 101678 | 107052
18 | 23:47.28 | 1:19.05 | 107053 | 112982
19 | 25:06.33 | 2:01.22 | 112983 | 122079
20 | 27:07.55 | 2:14.41 | 122080 | 132170
21 | 29:22.21 | 1:53.06 | 132171 | 140651
Характеристики диапазона извлечения и сообщения об ошибках
Выбранный диапазон
Имя файла D:\\Музыка\\Карабас - Занялотдай.wav
Пиковый уровень 96.6 %
Скорость извлечения 5.2 X
Качество диапазона 100.0 %
CRC теста 80FB9A21
CRC копии 80FB9A21
Копирование... OK
Ошибок не произошло
AccurateRip: сводка
Трек 1 отсутствует в базе данных
Трек 2 отсутствует в базе данных
Трек 3 отсутствует в базе данных
Трек 4 отсутствует в базе данных
Трек 5 отсутствует в базе данных
Трек 6 отсутствует в базе данных
Трек 7 отсутствует в базе данных
Трек 8 отсутствует в базе данных
Трек 9 отсутствует в базе данных
Трек 10 отсутствует в базе данных
Трек 11 отсутствует в базе данных
Трек 12 отсутствует в базе данных
Трек 13 отсутствует в базе данных
Трек 14 отсутствует в базе данных
Трек 15 отсутствует в базе данных
Трек 16 отсутствует в базе данных
Трек 17 отсутствует в базе данных
Трек 18 отсутствует в базе данных
Трек 19 отсутствует в базе данных
Трек 20 отсутствует в базе данных
Трек 21 отсутствует в базе данных
Ни одного трека нет в базе AccurateRip
Конец отчёта
---- CUETools DB Plugin V2.1.6
[CTDB TOCID: mkmMASKgBZikYD_TOzJdYQKkCA4-] disk not present in database
Submit result: mkmMASKgBZikYD_TOzJdYQKkCA4- has been uploaded
==== Контрольная сумма отчёта 843A9463016958AE27AE3565353B023E97B75093F173370300B5253D8EA397C1 ====

Содержание индексной карты (.CUE)

REM GENRE Rock
REM DATE 2018
REM DISCID 39075315
REM COMMENT "ExactAudioCopy v1.3"
PERFORMER "Карабас"
TITLE "Занялотдай"
REM COMPOSER ""
FILE "Карабас - Занялотдай.flac" WAVE
TRACK 01 AUDIO
TITLE "Да Кеды"
PERFORMER "Карабас"
REM COMPOSER ""
INDEX 01 00:00:00
TRACK 02 AUDIO
TITLE "Красота"
PERFORMER "Карабас"
REM COMPOSER ""
INDEX 00 02:24:55
INDEX 01 02:26:54
TRACK 03 AUDIO
TITLE "Соседка"
PERFORMER "Карабас"
REM COMPOSER ""
INDEX 00 03:15:73
INDEX 01 03:17:72
TRACK 04 AUDIO
TITLE "И Колотить"
PERFORMER "Карабас"
REM COMPOSER ""
INDEX 00 05:28:69
INDEX 01 05:30:68
TRACK 05 AUDIO
TITLE "Оригами"
PERFORMER "Карабас"
REM COMPOSER ""
INDEX 00 07:15:62
INDEX 01 07:17:61
TRACK 06 AUDIO
TITLE "Будь умней"
PERFORMER "Карабас"
REM COMPOSER ""
INDEX 00 08:38:16
INDEX 01 08:40:15
TRACK 07 AUDIO
TITLE "Страдают люди"
PERFORMER "Карабас"
REM COMPOSER ""
INDEX 00 09:42:39
INDEX 01 09:44:38
TRACK 08 AUDIO
TITLE "Нравы"
PERFORMER "Карабас"
REM COMPOSER ""
INDEX 00 10:36:56
INDEX 01 10:38:55
TRACK 09 AUDIO
TITLE "Гаечка"
PERFORMER "Карабас"
REM COMPOSER ""
INDEX 00 11:34:62
INDEX 01 11:36:61
TRACK 10 AUDIO
TITLE "В цирке"
PERFORMER "Карабас"
REM COMPOSER ""
INDEX 00 12:43:67
INDEX 01 12:45:66
TRACK 11 AUDIO
TITLE "Долги"
PERFORMER "Карабас"
REM COMPOSER ""
INDEX 00 14:19:38
INDEX 01 14:21:37
TRACK 12 AUDIO
TITLE "Огурцова Машка"
PERFORMER "Карабас"
REM COMPOSER ""
INDEX 00 16:02:73
INDEX 01 16:04:72
TRACK 13 AUDIO
TITLE "Лежало"
PERFORMER "Карабас"
REM COMPOSER ""
INDEX 00 17:15:45
INDEX 01 17:17:44
TRACK 14 AUDIO
TITLE "Вуаль"
PERFORMER "Карабас"
REM COMPOSER ""
INDEX 00 18:15:60
INDEX 01 18:17:59
TRACK 15 AUDIO
TITLE "Мускул"
PERFORMER "Карабас"
REM COMPOSER ""
INDEX 00 19:16:55
INDEX 01 19:18:54
TRACK 16 AUDIO
TITLE "Джаз"
PERFORMER "Карабас"
REM COMPOSER ""
INDEX 00 20:34:00
INDEX 01 20:35:74
TRACK 17 AUDIO
TITLE "Вася"
PERFORMER "Карабас"
REM COMPOSER ""
INDEX 00 22:33:54
INDEX 01 22:35:53
TRACK 18 AUDIO
TITLE "У памятника"
PERFORMER "Карабас"
REM COMPOSER ""
INDEX 00 23:45:29
INDEX 01 23:47:28
TRACK 19 AUDIO
TITLE "Котяра"
PERFORMER "Карабас"
REM COMPOSER ""
INDEX 00 25:04:34
INDEX 01 25:06:33
TRACK 20 AUDIO
TITLE "Конец"
PERFORMER "Карабас"
REM COMPOSER ""
INDEX 00 27:05:56
INDEX 01 27:07:55
TRACK 21 AUDIO
TITLE "Из Парижа"
PERFORMER "Карабас"
REM COMPOSER ""
INDEX 00 29:20:22
INDEX 01 29:22:21

2019. Карабас - Истинный портрет

Год издания: 2019
Издатель (лейбл): Авторское издание
Номер по каталогу: KRBS-CD-03
Продолжительность: 00:35:28
Треклист:
1. БЖМС
2. Спорт бар
3. Прорвёмся
4. Тревожен
5. Гвозди
6. Не дай
7. Худовата
8. Сонет
9. Скорая помощь
10. Суши-Сосуши
11. Я тебя
12. Нина
13. Мухоморов
14. Мечтать
15. Список
16. Проще

Лог создания рипа

Exact Audio Copy V1.3 from 2. September 2016
Отчёт EAC об извлечении, выполненном 14. февраля 2023, 19:18
Карабас / Истинный портрет
Дисковод: ATAPI DVD A DH16A6S Adapter: 1 ID: 0
Режим чтения : Достоверность
Использование точного потока : Да
Отключение кэша аудио : Да
Использование указателей C2 : Нет
Коррекция смещения при чтении : 6
Способность читать области Lead-in и Lead-out : Нет
Заполнение пропущенных сэмплов тишиной : Да
Удаление блоков с тишиной в начале и конце : Нет
При вычислениях CRC использовались нулевые сэмплы : Да
Интерфейс : Встроенный Win32-интерфейс для Win NT/2000
Выходной формат : Пользовательский кодировщик
Выбранный битрейт : 128 kBit/s
Качество : Высокий
Добавление ID3-тега : Нет
Утилита сжатия : C:\\Program Files\\Exact Audio Copy\\FLAC\\FLAC.EXE
Дополнительные параметры : -V -8 -T "Date=%year%" -T "Genre=%genre%" %source%
TOC извлечённого CD
Трек | Старт | Длительность | Начальный сектор | Конечный сектор
---------------------------------------------------------------------
1 | 0:00.00 | 3:14.11 | 0 | 14560
2 | 3:14.11 | 1:17.33 | 14561 | 20368
3 | 4:31.44 | 2:35.42 | 20369 | 32035
4 | 7:07.11 | 2:48.60 | 32036 | 44695
5 | 9:55.71 | 0:42.61 | 44696 | 47906
6 | 10:38.57 | 2:26.69 | 47907 | 58925
7 | 13:05.51 | 2:49.43 | 58926 | 71643
8 | 15:55.19 | 2:29.74 | 71644 | 82892
9 | 18:25.18 | 2:16.45 | 82893 | 93137
10 | 20:41.63 | 2:18.44 | 93138 | 103531
11 | 23:00.32 | 2:07.23 | 103532 | 113079
12 | 25:07.55 | 1:26.52 | 113080 | 119581
13 | 26:34.32 | 1:50.30 | 119582 | 127861
14 | 28:24.62 | 2:23.18 | 127862 | 138604
15 | 30:48.05 | 2:13.38 | 138605 | 148617
16 | 33:01.43 | 2:27.03 | 148618 | 159645
Характеристики диапазона извлечения и сообщения об ошибках
Выбранный диапазон
Имя файла D:\\Музыка\\Карабас - Истинный портрет.wav
Пиковый уровень 96.7 %
Скорость извлечения 7.8 X
Качество диапазона 100.0 %
CRC теста 996239DB
CRC копии 996239DB
Копирование... OK
Ошибок не произошло
AccurateRip: сводка
Трек 1 отсутствует в базе данных
Трек 2 отсутствует в базе данных
Трек 3 отсутствует в базе данных
Трек 4 отсутствует в базе данных
Трек 5 отсутствует в базе данных
Трек 6 отсутствует в базе данных
Трек 7 отсутствует в базе данных
Трек 8 отсутствует в базе данных
Трек 9 отсутствует в базе данных
Трек 10 отсутствует в базе данных
Трек 11 отсутствует в базе данных
Трек 12 отсутствует в базе данных
Трек 13 отсутствует в базе данных
Трек 14 отсутствует в базе данных
Трек 15 отсутствует в базе данных
Трек 16 отсутствует в базе данных
Ни одного трека нет в базе AccurateRip
Конец отчёта
---- CUETools DB Plugin V2.1.6
[CTDB TOCID: MffIO5n7fBq2iBmIJwAhL0WXKFA-] disk not present in database
Submit result: MffIO5n7fBq2iBmIJwAhL0WXKFA- has been uploaded
==== Контрольная сумма отчёта A893A382E6D0D31AAC171B61B60C5B21B86C3E9343AE8C92AED6D2476787BC11 ====

Содержание индексной карты (.CUE)

REM GENRE Rock
REM DATE 2019
REM DISCID ED085010
REM COMMENT "ExactAudioCopy v1.3"
PERFORMER "Карабас"
TITLE "Истинный портрет"
REM COMPOSER ""
FILE "Карабас - Истинный портрет.flac" WAVE
TRACK 01 AUDIO
TITLE "БЖМС"
PERFORMER "Карабас"
REM COMPOSER ""
INDEX 01 00:00:00
TRACK 02 AUDIO
TITLE "Спорт бар"
PERFORMER "Карабас"
REM COMPOSER ""
INDEX 00 03:12:08
INDEX 01 03:14:11
TRACK 03 AUDIO
TITLE "Прорвёмся"
PERFORMER "Карабас"
REM COMPOSER ""
INDEX 00 04:29:45
INDEX 01 04:31:44
TRACK 04 AUDIO
TITLE "Тревожен"
PERFORMER "Карабас"
REM COMPOSER ""
INDEX 00 07:05:12
INDEX 01 07:07:11
TRACK 05 AUDIO
TITLE "Гвозди"
PERFORMER "Карабас"
REM COMPOSER ""
INDEX 00 09:53:72
INDEX 01 09:55:71
TRACK 06 AUDIO
TITLE "Не дай"
PERFORMER "Карабас"
REM COMPOSER ""
INDEX 00 10:36:58
INDEX 01 10:38:57
TRACK 07 AUDIO
TITLE "Худовата"
PERFORMER "Карабас"
REM COMPOSER ""
INDEX 00 13:03:63
INDEX 01 13:05:51
TRACK 08 AUDIO
TITLE "Сонет"
PERFORMER "Карабас"
REM COMPOSER ""
INDEX 00 15:53:20
INDEX 01 15:55:19
TRACK 09 AUDIO
TITLE "Скорая помощь"
PERFORMER "Карабас"
REM COMPOSER ""
INDEX 00 18:23:19
INDEX 01 18:25:18
TRACK 10 AUDIO
TITLE "Суши-Сосуши"
PERFORMER "Карабас"
REM COMPOSER ""
INDEX 00 20:39:64
INDEX 01 20:41:63
TRACK 11 AUDIO
TITLE "Я тебя"
PERFORMER "Карабас"
REM COMPOSER ""
INDEX 00 22:58:33
INDEX 01 23:00:32
TRACK 12 AUDIO
TITLE "Нина"
PERFORMER "Карабас"
REM COMPOSER ""
INDEX 00 25:05:56
INDEX 01 25:07:55
TRACK 13 AUDIO
TITLE "Мухоморов"
PERFORMER "Карабас"
REM COMPOSER ""
INDEX 00 26:32:33
INDEX 01 26:34:32
TRACK 14 AUDIO
TITLE "Мечтать"
PERFORMER "Карабас"
REM COMPOSER ""
INDEX 00 28:22:63
INDEX 01 28:24:62
TRACK 15 AUDIO
TITLE "Список"
PERFORMER "Карабас"
REM COMPOSER ""
INDEX 00 30:46:06
INDEX 01 30:48:05
TRACK 16 AUDIO
TITLE "Проще"
PERFORMER "Карабас"
REM COMPOSER ""
INDEX 00 32:59:44
INDEX 01 33:01:43

2019. Карабас - При делах

Год издания: 2019
Издатель (лейбл): Авторское издание
Номер по каталогу: KRBS-CD-02
Продолжительность: 00:30:26
Треклист:
1. Ношеное
2. Старуха
3. Аппетит
4. Не везло
5. Аня
6. Гагариным
7. Спирт и Зима
8. Маркетинг
9. Под мухой
10. О женщине
11. 8 марта
12. Яйца
13. Маринка
14. Джинса
15. Шарик
16. Ландыши
17. С похмелья
18. Фаза
19. Сотворение
20. Проще
21. Любите

Лог создания рипа

Exact Audio Copy V1.3 from 2. September 2016
Отчёт EAC об извлечении, выполненном 14. февраля 2023, 19:33
Карабас / При делах..
Дисковод: ATAPI DVD A DH16A6S Adapter: 1 ID: 0
Режим чтения : Достоверность
Использование точного потока : Да
Отключение кэша аудио : Да
Использование указателей C2 : Нет
Коррекция смещения при чтении : 6
Способность читать области Lead-in и Lead-out : Нет
Заполнение пропущенных сэмплов тишиной : Да
Удаление блоков с тишиной в начале и конце : Нет
При вычислениях CRC использовались нулевые сэмплы : Да
Интерфейс : Встроенный Win32-интерфейс для Win NT/2000
Выходной формат : Пользовательский кодировщик
Выбранный битрейт : 128 kBit/s
Качество : Высокий
Добавление ID3-тега : Нет
Утилита сжатия : C:\\Program Files\\Exact Audio Copy\\FLAC\\FLAC.EXE
Дополнительные параметры : -V -8 -T "Date=%year%" -T "Genre=%genre%" %source%
TOC извлечённого CD
Трек | Старт | Длительность | Начальный сектор | Конечный сектор
---------------------------------------------------------------------
1 | 0:00.00 | 1:31.37 | 0 | 6861
2 | 1:31.37 | 1:22.00 | 6862 | 13011
3 | 2:53.37 | 0:55.08 | 13012 | 17144
4 | 3:48.45 | 0:57.29 | 17145 | 21448
5 | 4:45.74 | 1:44.05 | 21449 | 29253
6 | 6:30.04 | 1:00.66 | 29254 | 33819
7 | 7:30.70 | 2:07.62 | 33820 | 43406
8 | 9:38.57 | 1:25.51 | 43407 | 49832
9 | 11:04.33 | 1:14.39 | 49833 | 55421
10 | 12:18.72 | 1:32.54 | 55422 | 62375
11 | 13:51.51 | 1:12.57 | 62376 | 67832
12 | 15:04.33 | 0:59.48 | 67833 | 72305
13 | 16:04.06 | 2:07.68 | 72306 | 81898
14 | 18:11.74 | 1:15.54 | 81899 | 87577
15 | 19:27.53 | 1:24.53 | 87578 | 93930
16 | 20:52.31 | 1:53.60 | 93931 | 102465
17 | 22:46.16 | 1:02.20 | 102466 | 107135
18 | 23:48.36 | 0:54.38 | 107136 | 111223
19 | 24:42.74 | 1:06.63 | 111224 | 116236
20 | 25:49.62 | 2:19.65 | 116237 | 126726
21 | 28:09.52 | 2:26.52 | 126727 | 137728
Характеристики диапазона извлечения и сообщения об ошибках
Выбранный диапазон
Имя файла D:\\Музыка\\Карабас - При делах...wav
Пиковый уровень 97.1 %
Скорость извлечения 7.7 X
Качество диапазона 100.0 %
CRC теста E0ECD385
CRC копии E0ECD385
Копирование... OK
Ошибок не произошло
AccurateRip: сводка
Трек 1 отсутствует в базе данных
Трек 2 отсутствует в базе данных
Трек 3 отсутствует в базе данных
Трек 4 отсутствует в базе данных
Трек 5 отсутствует в базе данных
Трек 6 отсутствует в базе данных
Трек 7 отсутствует в базе данных
Трек 8 отсутствует в базе данных
Трек 9 отсутствует в базе данных
Трек 10 отсутствует в базе данных
Трек 11 отсутствует в базе данных
Трек 12 отсутствует в базе данных
Трек 13 отсутствует в базе данных
Трек 14 отсутствует в базе данных
Трек 15 отсутствует в базе данных
Трек 16 отсутствует в базе данных
Трек 17 отсутствует в базе данных
Трек 18 отсутствует в базе данных
Трек 19 отсутствует в базе данных
Трек 20 отсутствует в базе данных
Трек 21 отсутствует в базе данных
Ни одного трека нет в базе AccurateRip
Конец отчёта
---- CUETools DB Plugin V2.1.6
[CTDB TOCID: DcOPNiSZ0R4Hkr_LS.ehUr.MFz8-] disk not present in database
Submit result: DcOPNiSZ0R4Hkr_LS.ehUr.MFz8- has been uploaded
==== Контрольная сумма отчёта B96B35E38004F4D5A6E3E25CF12F5EB041FABCB8AC8584E296725535C3142CFB ====

Содержание индексной карты (.CUE)

REM GENRE Rock
REM DATE 2019
REM DISCID 19072C15
REM COMMENT "ExactAudioCopy v1.3"
PERFORMER "Карабас"
TITLE "При делах.."
REM COMPOSER ""
FILE "Карабас - При делах...flac" WAVE
TRACK 01 AUDIO
TITLE "Ношеное"
PERFORMER "Карабас"
REM COMPOSER ""
INDEX 01 00:00:00
TRACK 02 AUDIO
TITLE "Старуха"
PERFORMER "Карабас"
REM COMPOSER ""
INDEX 00 01:29:38
INDEX 01 01:31:37
TRACK 03 AUDIO
TITLE "Аппетит"
PERFORMER "Карабас"
REM COMPOSER ""
INDEX 00 02:51:38
INDEX 01 02:53:37
TRACK 04 AUDIO
TITLE "Не везло"
PERFORMER "Карабас"
REM COMPOSER ""
INDEX 00 03:46:46
INDEX 01 03:48:45
TRACK 05 AUDIO
TITLE "Аня"
PERFORMER "Карабас"
REM COMPOSER ""
INDEX 00 04:44:00
INDEX 01 04:45:74
TRACK 06 AUDIO
TITLE "Гагариным"
PERFORMER "Карабас"
REM COMPOSER ""
INDEX 00 06:28:05
INDEX 01 06:30:04
TRACK 07 AUDIO
TITLE "Спирт и Зима"
PERFORMER "Карабас"
REM COMPOSER ""
INDEX 00 07:28:71
INDEX 01 07:30:70
TRACK 08 AUDIO
TITLE "Маркетинг"
PERFORMER "Карабас"
REM COMPOSER ""
INDEX 00 09:36:58
INDEX 01 09:38:57
TRACK 09 AUDIO
TITLE "Под мухой"
PERFORMER "Карабас"
REM COMPOSER ""
INDEX 00 11:02:34
INDEX 01 11:04:33
TRACK 10 AUDIO
TITLE "О женщине"
PERFORMER "Карабас"
REM COMPOSER ""
INDEX 00 12:16:68
INDEX 01 12:18:72
TRACK 11 AUDIO
TITLE "8 марта"
PERFORMER "Карабас"
REM COMPOSER ""
INDEX 00 13:49:52
INDEX 01 13:51:51
TRACK 12 AUDIO
TITLE "Яйца"
PERFORMER "Карабас"
REM COMPOSER ""
INDEX 00 15:02:34
INDEX 01 15:04:33
TRACK 13 AUDIO
TITLE "Маринка"
PERFORMER "Карабас"
REM COMPOSER ""
INDEX 00 16:02:07
INDEX 01 16:04:06
TRACK 14 AUDIO
TITLE "Джинса"
PERFORMER "Карабас"
REM COMPOSER ""
INDEX 00 18:10:00
INDEX 01 18:11:74
TRACK 15 AUDIO
TITLE "Шарик"
PERFORMER "Карабас"
REM COMPOSER ""
INDEX 00 19:25:54
INDEX 01 19:27:53
TRACK 16 AUDIO
TITLE "Ландыши"
PERFORMER "Карабас"
REM COMPOSER ""
INDEX 00 20:50:32
INDEX 01 20:52:31
TRACK 17 AUDIO
TITLE "С похмелья"
PERFORMER "Карабас"
REM COMPOSER ""
INDEX 00 22:44:17
INDEX 01 22:46:16
TRACK 18 AUDIO
TITLE "Фаза"
PERFORMER "Карабас"
REM COMPOSER ""
INDEX 00 23:46:37
INDEX 01 23:48:36
TRACK 19 AUDIO
TITLE "Сотворение"
PERFORMER "Карабас"
REM COMPOSER ""
INDEX 00 24:40:73
INDEX 01 24:42:74
TRACK 20 AUDIO
TITLE "Проще"
PERFORMER "Карабас"
REM COMPOSER ""
INDEX 00 25:47:63
INDEX 01 25:49:62
TRACK 21 AUDIO
TITLE "Любите"
PERFORMER "Карабас"
REM COMPOSER ""
INDEX 00 28:07:53
INDEX 01 28:09:52

2020. Карабас и НесуРазности - Атрибут

Год издания: 2020
Издатель (лейбл): Авторское издание
Номер по каталогу: KRBS-CD-04
Продолжительность: 00:22:51
Треклист:
1. Если утром
2. Осень
3. Атрибут
4. Людмила
5. Околачиваю
6. По-тихому
7. Дама с собачкой
8. Радиоволны
9. Карты
10. Лишние вещи

Лог создания рипа

Exact Audio Copy V1.3 from 2. September 2016
Отчёт EAC об извлечении, выполненном 14. февраля 2023, 19:47
Карабас и НесуРазности / Атрибут
Дисковод: ATAPI DVD A DH16A6S Adapter: 1 ID: 0
Режим чтения : Достоверность
Использование точного потока : Да
Отключение кэша аудио : Да
Использование указателей C2 : Нет
Коррекция смещения при чтении : 6
Способность читать области Lead-in и Lead-out : Нет
Заполнение пропущенных сэмплов тишиной : Да
Удаление блоков с тишиной в начале и конце : Нет
При вычислениях CRC использовались нулевые сэмплы : Да
Интерфейс : Встроенный Win32-интерфейс для Win NT/2000
Выходной формат : Пользовательский кодировщик
Выбранный битрейт : 128 kBit/s
Качество : Высокий
Добавление ID3-тега : Нет
Утилита сжатия : C:\\Program Files\\Exact Audio Copy\\FLAC\\FLAC.EXE
Дополнительные параметры : -V -8 -T "Date=%year%" -T "Genre=%genre%" %source%
TOC извлечённого CD
Трек | Старт | Длительность | Начальный сектор | Конечный сектор
---------------------------------------------------------------------
1 | 0:00.00 | 2:03.21 | 0 | 9245
2 | 2:03.21 | 3:21.00 | 9246 | 24320
3 | 5:24.21 | 1:51.10 | 24321 | 32655
4 | 7:15.31 | 2:02.32 | 32656 | 41837
5 | 9:17.63 | 1:57.02 | 41838 | 50614
6 | 11:14.65 | 2:35.45 | 50615 | 62284
7 | 13:50.35 | 2:06.20 | 62285 | 71754
8 | 15:56.55 | 2:18.00 | 71755 | 82104
9 | 18:14.55 | 1:59.57 | 82105 | 91086
10 | 20:14.37 | 2:36.41 | 91087 | 102827
Характеристики диапазона извлечения и сообщения об ошибках
Выбранный диапазон
Имя файла D:\\Музыка\\Карабас и НесуРазности - Атрибут.wav
Пиковый уровень 79.9 %
Скорость извлечения 5.0 X
Качество диапазона 100.0 %
CRC теста 84059DA9
CRC копии 84059DA9
Копирование... OK
Ошибок не произошло
AccurateRip: сводка
Трек 1 отсутствует в базе данных
Трек 2 отсутствует в базе данных
Трек 3 отсутствует в базе данных
Трек 4 отсутствует в базе данных
Трек 5 отсутствует в базе данных
Трек 6 отсутствует в базе данных
Трек 7 отсутствует в базе данных
Трек 8 отсутствует в базе данных
Трек 9 отсутствует в базе данных
Трек 10 отсутствует в базе данных
Ни одного трека нет в базе AccurateRip
Конец отчёта
---- CUETools DB Plugin V2.1.6
[CTDB TOCID: PY4Rv1XWARAkpzANQNLdiNAxaxY-] found
Submit result: PY4Rv1XWARAkpzANQNLdiNAxaxY- has been confirmed
Track | CTDB Status
1 | (1/1) Accurately ripped
2 | (1/1) Accurately ripped
3 | (1/1) Accurately ripped
4 | (1/1) Accurately ripped
5 | (1/1) Accurately ripped
6 | (1/1) Accurately ripped
7 | (1/1) Accurately ripped
8 | (1/1) Accurately ripped
9 | (1/1) Accurately ripped
10 | (1/1) Accurately ripped
==== Контрольная сумма отчёта 14440298BE6EC8F0BA41519907A469812A736216CD7B9648EF5ADC4D4CD8A2DB ====

Содержание индексной карты (.CUE)

REM GENRE Rock
REM DATE 2020
REM DISCID 86055B0A
REM COMMENT "ExactAudioCopy v1.3"
PERFORMER "Карабас и НесуРазности"
TITLE "Атрибут"
REM COMPOSER ""
FILE "Карабас и НесуРазности - Атрибут.flac" WAVE
TRACK 01 AUDIO
TITLE "Если утром"
PERFORMER "Карабас и НесуРазности"
REM COMPOSER ""
INDEX 01 00:00:00
TRACK 02 AUDIO
TITLE "Осень"
PERFORMER "Карабас и НесуРазности"
REM COMPOSER ""
INDEX 01 02:03:21
TRACK 03 AUDIO
TITLE "Атрибут"
PERFORMER "Карабас и НесуРазности"
REM COMPOSER ""
INDEX 01 05:24:21
TRACK 04 AUDIO
TITLE "Людмила"
PERFORMER "Карабас и НесуРазности"
REM COMPOSER ""
INDEX 01 07:15:31
TRACK 05 AUDIO
TITLE "Околачиваю"
PERFORMER "Карабас и НесуРазности"
REM COMPOSER ""
INDEX 01 09:17:63
TRACK 06 AUDIO
TITLE "По-тихому"
PERFORMER "Карабас и НесуРазности"
REM COMPOSER ""
INDEX 01 11:14:65
TRACK 07 AUDIO
TITLE "Дама с собачкой"
PERFORMER "Карабас и НесуРазности"
REM COMPOSER ""
INDEX 01 13:50:35
TRACK 08 AUDIO
TITLE "Радиоволны"
PERFORMER "Карабас и НесуРазности"
REM COMPOSER ""
INDEX 01 15:56:55
TRACK 09 AUDIO
TITLE "Карты"
PERFORMER "Карабас и НесуРазности"
REM COMPOSER ""
INDEX 01 18:14:55
TRACK 10 AUDIO
TITLE "Лишние вещи"
PERFORMER "Карабас и НесуРазности"
REM COMPOSER ""
INDEX 01 20:14:37

2021. Карабас и НесуРазности - Едем мы на оргию

Год издания: 2021
Издатель (лейбл): Авторское издание
Номер по каталогу: KRBS-CD-05
Продолжительность: 00:07:51
Треклист:
1. Едем мы на оргию
2. Космотанцы
3. Клоуны
4. Новости

Лог создания рипа

Exact Audio Copy V1.3 from 2. September 2016
Отчёт EAC об извлечении, выполненном 14. февраля 2023, 19:59
Карабас и НесуРазности / Едем мы на оргию..
Дисковод: ATAPI DVD A DH16A6S Adapter: 1 ID: 0
Режим чтения : Достоверность
Использование точного потока : Да
Отключение кэша аудио : Да
Использование указателей C2 : Нет
Коррекция смещения при чтении : 6
Способность читать области Lead-in и Lead-out : Нет
Заполнение пропущенных сэмплов тишиной : Да
Удаление блоков с тишиной в начале и конце : Нет
При вычислениях CRC использовались нулевые сэмплы : Да
Интерфейс : Встроенный Win32-интерфейс для Win NT/2000
Выходной формат : Пользовательский кодировщик
Выбранный битрейт : 128 kBit/s
Качество : Высокий
Добавление ID3-тега : Нет
Утилита сжатия : C:\\Program Files\\Exact Audio Copy\\FLAC\\FLAC.EXE
Дополнительные параметры : -V -8 -T "Date=%year%" -T "Genre=%genre%" %source%
TOC извлечённого CD
Трек | Старт | Длительность | Начальный сектор | Конечный сектор
---------------------------------------------------------------------
1 | 0:00.00 | 1:48.45 | 0 | 8144
2 | 1:48.45 | 2:53.09 | 8145 | 21128
3 | 4:41.54 | 1:17.50 | 21129 | 26953
4 | 5:59.29 | 1:51.56 | 26954 | 35334
Характеристики диапазона извлечения и сообщения об ошибках
Выбранный диапазон
Имя файла D:\\Музыка\\Карабас и НесуРазности - Едем мы на оргию...wav
Пиковый уровень 97.6 %
Скорость извлечения 5.4 X
Качество диапазона 99.9 %
CRC теста EC728688
CRC копии EC728688
Копирование... OK
Ошибок не произошло
AccurateRip: сводка
Трек 1 отсутствует в базе данных
Трек 2 отсутствует в базе данных
Трек 3 отсутствует в базе данных
Трек 4 отсутствует в базе данных
Ни одного трека нет в базе AccurateRip
Конец отчёта
---- CUETools DB Plugin V2.1.6
[CTDB TOCID: wdyqAwr1oBw7.3pf_czDT8LR_jQ-] disk not present in database
Submit result: wdyqAwr1oBw7.3pf_czDT8LR_jQ- has been uploaded
==== Контрольная сумма отчёта 7EC52830124C560693225F6A9464DF061FF5315B32CF39415260A9BB28B90B84 ====

Содержание индексной карты (.CUE)

REM GENRE Rock
REM DATE 2021
REM DISCID 1B01D704
REM COMMENT "ExactAudioCopy v1.3"
PERFORMER "Карабас и НесуРазности"
TITLE "Едем мы на оргию.."
REM COMPOSER ""
FILE "Карабас и НесуРазности - Едем мы на оргию...flac" WAVE
TRACK 01 AUDIO
TITLE "Едем мы на оргию"
PERFORMER "Карабас и НесуРазности"
REM COMPOSER ""
INDEX 01 00:00:00
TRACK 02 AUDIO
TITLE "Космотанцы"
PERFORMER "Карабас и НесуРазности"
REM COMPOSER ""
INDEX 01 01:48:45
TRACK 03 AUDIO
TITLE "Клоуны"
PERFORMER "Карабас и НесуРазности"
REM COMPOSER ""
INDEX 01 04:41:54
TRACK 04 AUDIO
TITLE "Новости"
PERFORMER "Карабас и НесуРазности"
REM COMPOSER ""
INDEX 01 05:59:29

2021. Карабас и НесуРазности - Ум и красота

Год издания: 2021
Издатель (лейбл): Авторское издание
Номер по каталогу: KRBS-CD-07
Продолжительность: 00:28:18
Треклист:
1. Тамара была
2. Салон
3. Пианино
4. Водка
5. Ножик
6. У ясеня
7. Капустники
8. Деньги
9. Восьмая Марта
10. Пальтецо
11. Ум и красота
12. Как ангел
13. План
14. Кобура
15. Март
16. Сапёр
17. Воспитание
18. Банные дни

Лог создания рипа

Exact Audio Copy V1.3 from 2. September 2016
Отчёт EAC об извлечении, выполненном 14. февраля 2023, 20:42
Карабас и НесуРазности / Ум и красота
Дисковод: ATAPI DVD A DH16A6S Adapter: 1 ID: 0
Режим чтения : Достоверность
Использование точного потока : Да
Отключение кэша аудио : Да
Использование указателей C2 : Нет
Коррекция смещения при чтении : 6
Способность читать области Lead-in и Lead-out : Нет
Заполнение пропущенных сэмплов тишиной : Да
Удаление блоков с тишиной в начале и конце : Нет
При вычислениях CRC использовались нулевые сэмплы : Да
Интерфейс : Встроенный Win32-интерфейс для Win NT/2000
Выходной формат : Пользовательский кодировщик
Выбранный битрейт : 128 kBit/s
Качество : Высокий
Добавление ID3-тега : Нет
Утилита сжатия : C:\\Program Files\\Exact Audio Copy\\FLAC\\FLAC.EXE
Дополнительные параметры : -V -8 -T "Date=%year%" -T "Genre=%genre%" %source%
TOC извлечённого CD
Трек | Старт | Длительность | Начальный сектор | Конечный сектор
---------------------------------------------------------------------
1 | 0:00.00 | 1:23.64 | 0 | 6288
2 | 1:23.64 | 1:24.16 | 6289 | 12604
3 | 2:48.05 | 1:01.42 | 12605 | 17221
4 | 3:49.47 | 1:47.18 | 17222 | 25264
5 | 5:36.65 | 1:25.00 | 25265 | 31639
6 | 7:01.65 | 1:32.24 | 31640 | 38563
7 | 8:34.14 | 1:55.37 | 38564 | 47225
8 | 10:29.51 | 1:28.05 | 47226 | 53830
9 | 11:57.56 | 1:27.41 | 53831 | 60396
10 | 13:25.22 | 2:47.19 | 60397 | 72940
11 | 16:12.41 | 1:15.15 | 72941 | 78580
12 | 17:27.56 | 0:52.57 | 78581 | 82537
13 | 18:20.38 | 1:16.36 | 82538 | 88273
14 | 19:36.74 | 2:10.39 | 88274 | 98062
15 | 21:47.38 | 0:49.30 | 98063 | 101767
16 | 22:36.68 | 1:12.69 | 101768 | 107236
17 | 23:49.62 | 1:35.00 | 107237 | 114361
18 | 25:24.62 | 0:53.70 | 114362 | 118406
Характеристики диапазона извлечения и сообщения об ошибках
Выбранный диапазон
Имя файла D:\\Музыка\\Карабас и НесуРазности - Ум и красота.wav
Пиковый уровень 100.0 %
Скорость извлечения 4.7 X
Качество диапазона 99.9 %
CRC теста 6EBBF48E
CRC копии 6EBBF48E
Копирование... OK
Ошибок не произошло
AccurateRip: сводка
Трек 1 отсутствует в базе данных
Трек 2 отсутствует в базе данных
Трек 3 отсутствует в базе данных
Трек 4 отсутствует в базе данных
Трек 5 отсутствует в базе данных
Трек 6 отсутствует в базе данных
Трек 7 отсутствует в базе данных
Трек 8 отсутствует в базе данных
Трек 9 отсутствует в базе данных
Трек 10 отсутствует в базе данных
Трек 11 отсутствует в базе данных
Трек 12 отсутствует в базе данных
Трек 13 отсутствует в базе данных
Трек 14 отсутствует в базе данных
Трек 15 отсутствует в базе данных
Трек 16 отсутствует в базе данных
Трек 17 отсутствует в базе данных
Трек 18 отсутствует в базе данных
Ни одного трека нет в базе AccurateRip
Конец отчёта
---- CUETools DB Plugin V2.1.6
[CTDB TOCID: SUK6j6QMU6FsP_hLKZPt1EEAufk-] disk not present in database
Submit result: SUK6j6QMU6FsP_hLKZPt1EEAufk- has been uploaded
==== Контрольная сумма отчёта A0034AA31EF0020543356C24C854ED08ACEE57B07B57DB180610EBFD39A04E66 ====

Содержание индексной карты (.CUE)

REM GENRE Rock
REM DATE 2021
REM DISCID D6062A12
REM COMMENT "ExactAudioCopy v1.3"
PERFORMER "Карабас и НесуРазности"
TITLE "Ум и красота"
REM COMPOSER ""
FILE "Карабас и НесуРазности - Ум и красота.flac" WAVE
TRACK 01 AUDIO
TITLE "Тамара была"
PERFORMER "Карабас и НесуРазности"
REM COMPOSER ""
INDEX 01 00:00:00
TRACK 02 AUDIO
TITLE "Салон"
PERFORMER "Карабас и НесуРазности"
REM COMPOSER ""
INDEX 01 01:23:64
TRACK 03 AUDIO
TITLE "Пианино"
PERFORMER "Карабас и НесуРазности"
REM COMPOSER ""
INDEX 01 02:48:05
TRACK 04 AUDIO
TITLE "Водка"
PERFORMER "Карабас и НесуРазности"
REM COMPOSER ""
INDEX 01 03:49:47
TRACK 05 AUDIO
TITLE "Ножик"
PERFORMER "Карабас и НесуРазности"
REM COMPOSER ""
INDEX 01 05:36:65
TRACK 06 AUDIO
TITLE "У ясеня"
PERFORMER "Карабас и НесуРазности"
REM COMPOSER ""
INDEX 01 07:01:65
TRACK 07 AUDIO
TITLE "Капустники"
PERFORMER "Карабас и НесуРазности"
REM COMPOSER ""
INDEX 01 08:34:14
TRACK 08 AUDIO
TITLE "Деньги"
PERFORMER "Карабас и НесуРазности"
REM COMPOSER ""
INDEX 01 10:29:51
TRACK 09 AUDIO
TITLE "Восьмое Марта"
PERFORMER "Карабас и НесуРазности"
REM COMPOSER ""
INDEX 01 11:57:56
TRACK 10 AUDIO
TITLE "Пальтецо"
PERFORMER "Карабас и НесуРазности"
REM COMPOSER ""
INDEX 01 13:25:22
TRACK 11 AUDIO
TITLE "Ум и Красота"
PERFORMER "Карабас и НесуРазности"
REM COMPOSER ""
INDEX 01 16:12:41
TRACK 12 AUDIO
TITLE "Как ангел"
PERFORMER "Карабас и НесуРазности"
REM COMPOSER ""
INDEX 01 17:27:56
TRACK 13 AUDIO
TITLE "План"
PERFORMER "Карабас и НесуРазности"
REM COMPOSER ""
INDEX 01 18:20:38
TRACK 14 AUDIO
TITLE "Кобура"
PERFORMER "Карабас и НесуРазности"
REM COMPOSER ""
INDEX 01 19:36:74
TRACK 15 AUDIO
TITLE "Март"
PERFORMER "Карабас и НесуРазности"
REM COMPOSER ""
INDEX 01 21:47:38
TRACK 16 AUDIO
TITLE "Сапёр"
PERFORMER "Карабас и НесуРазности"
REM COMPOSER ""
INDEX 01 22:36:68
TRACK 17 AUDIO
TITLE "Воспитание"
PERFORMER "Карабас и НесуРазности"
REM COMPOSER ""
INDEX 01 23:49:62
TRACK 18 AUDIO
TITLE "Банные дни"
PERFORMER "Карабас и НесуРазности"
REM COMPOSER ""
INDEX 01 25:24:62

2022. Карабас и НесуРазности - Изобретатели

Год издания: 2022
Издатель (лейбл): Авторское издание
Номер по каталогу: KRBS-CD-09
Продолжительность: 00:42:12
Треклист:
1. Табуретка, верёвка и мыло
2. Хотя бы две
3. Иван Иваныч
4. Придрочился
5. Стартап
6. Бригантина
7. Розовые ласты
8. Искры
9. Носок
10. Пора
11. Изобретатель
12. Библиотека
13. Рыбка
14. Отвёртка
15. Драники
16. Не пью
17. Форма
18. В школу не пойду
19. Футбол
20. Настроение

Лог создания рипа

Exact Audio Copy V1.3 from 2. September 2016
Отчёт EAC об извлечении, выполненном 14. февраля 2023, 20:17
Карабас и НесуРазности / Изобретатели
Дисковод: ATAPI DVD A DH16A6S Adapter: 1 ID: 0
Режим чтения : Достоверность
Использование точного потока : Да
Отключение кэша аудио : Да
Использование указателей C2 : Нет
Коррекция смещения при чтении : 6
Способность читать области Lead-in и Lead-out : Нет
Заполнение пропущенных сэмплов тишиной : Да
Удаление блоков с тишиной в начале и конце : Нет
При вычислениях CRC использовались нулевые сэмплы : Да
Интерфейс : Встроенный Win32-интерфейс для Win NT/2000
Выходной формат : Пользовательский кодировщик
Выбранный битрейт : 128 kBit/s
Качество : Высокий
Добавление ID3-тега : Нет
Утилита сжатия : C:\\Program Files\\Exact Audio Copy\\FLAC\\FLAC.EXE
Дополнительные параметры : -V -8 -T "Date=%year%" -T "Genre=%genre%" %source%
TOC извлечённого CD
Трек | Старт | Длительность | Начальный сектор | Конечный сектор
---------------------------------------------------------------------
1 | 0:00.00 | 2:21.47 | 0 | 10621
2 | 2:21.47 | 1:59.70 | 10622 | 19616
3 | 4:21.42 | 0:54.17 | 19617 | 23683
4 | 5:15.59 | 2:28.67 | 23684 | 34850
5 | 7:44.51 | 0:56.05 | 34851 | 39055
6 | 8:40.56 | 2:44.55 | 39056 | 51410
7 | 11:25.36 | 2:53.27 | 51411 | 64412
8 | 14:18.63 | 1:41.09 | 64413 | 71996
9 | 15:59.72 | 2:39.00 | 71997 | 83921
10 | 18:38.72 | 1:56.18 | 83922 | 92639
11 | 20:35.15 | 2:27.00 | 92640 | 103664
12 | 23:02.15 | 2:31.27 | 103665 | 115016
13 | 25:33.42 | 1:48.50 | 115017 | 123166
14 | 27:22.17 | 2:29.10 | 123167 | 134351
15 | 29:51.27 | 1:32.39 | 134352 | 141290
16 | 31:23.66 | 2:35.42 | 141291 | 152957
17 | 33:59.33 | 2:15.60 | 152958 | 163142
18 | 36:15.18 | 2:20.24 | 163143 | 173666
19 | 38:35.42 | 0:54.34 | 173667 | 177750
20 | 39:30.01 | 2:42.50 | 177751 | 189950
Характеристики диапазона извлечения и сообщения об ошибках
Выбранный диапазон
Имя файла D:\\Музыка\\Карабас и НесуРазности - Изобретатели.wav
Пиковый уровень 100.0 %
Скорость извлечения 7.9 X
Качество диапазона 100.0 %
CRC теста 9E11E494
CRC копии 9E11E494
Копирование... OK
Ошибок не произошло
AccurateRip: сводка
Трек 1 отсутствует в базе данных
Трек 2 отсутствует в базе данных
Трек 3 отсутствует в базе данных
Трек 4 отсутствует в базе данных
Трек 5 отсутствует в базе данных
Трек 6 отсутствует в базе данных
Трек 7 отсутствует в базе данных
Трек 8 отсутствует в базе данных
Трек 9 отсутствует в базе данных
Трек 10 отсутствует в базе данных
Трек 11 отсутствует в базе данных
Трек 12 отсутствует в базе данных
Трек 13 отсутствует в базе данных
Трек 14 отсутствует в базе данных
Трек 15 отсутствует в базе данных
Трек 16 отсутствует в базе данных
Трек 17 отсутствует в базе данных
Трек 18 отсутствует в базе данных
Трек 19 отсутствует в базе данных
Трек 20 отсутствует в базе данных
Ни одного трека нет в базе AccurateRip
Конец отчёта
---- CUETools DB Plugin V2.1.6
[CTDB TOCID: XhhYi7ECt7ovdE.dIDCi7wuWQbE-] disk not present in database
Submit result: XhhYi7ECt7ovdE.dIDCi7wuWQbE- has been uploaded
==== Контрольная сумма отчёта F509823798F63F35EB85F131A58D96AA1AF5CA11752A3C3FC00253AF3DB51954 ====

Содержание индексной карты (.CUE)

REM GENRE Rock
REM DATE 2022
REM DISCID 0809E414
REM COMMENT "ExactAudioCopy v1.3"
PERFORMER "Карабас и НесуРазности"
TITLE "Изобретатели"
REM COMPOSER ""
FILE "Карабас и НесуРазности - Изобретатели.flac" WAVE
TRACK 01 AUDIO
TITLE "Табуретка, верёвка и мыло"
PERFORMER "Карабас и НесуРазности"
REM COMPOSER ""
FLAGS DCP
INDEX 01 00:00:00
TRACK 02 AUDIO
TITLE "Хотя бы две"
PERFORMER "Карабас и НесуРазности"
REM COMPOSER ""
FLAGS DCP
INDEX 01 02:21:47
TRACK 03 AUDIO
TITLE "Иван Иванович"
PERFORMER "Карабас и НесуРазности"
REM COMPOSER ""
FLAGS DCP
INDEX 01 04:21:42
TRACK 04 AUDIO
TITLE "Придрочился"
PERFORMER "Карабас и НесуРазности"
REM COMPOSER ""
FLAGS DCP
INDEX 01 05:15:59
TRACK 05 AUDIO
TITLE "Стартап"
PERFORMER "Карабас и НесуРазности"
REM COMPOSER ""
FLAGS DCP
INDEX 01 07:44:51
TRACK 06 AUDIO
TITLE "Бригантина"
PERFORMER "Карабас и НесуРазности"
REM COMPOSER ""
FLAGS DCP
INDEX 01 08:40:56
TRACK 07 AUDIO
TITLE "Розовые ласты"
PERFORMER "Карабас и НесуРазности"
REM COMPOSER ""
FLAGS DCP
INDEX 01 11:25:36
TRACK 08 AUDIO
TITLE "Искры"
PERFORMER "Карабас и НесуРазности"
REM COMPOSER ""
FLAGS DCP
INDEX 01 14:18:63
TRACK 09 AUDIO
TITLE "Носок"
PERFORMER "Карабас и НесуРазности"
REM COMPOSER ""
FLAGS DCP
INDEX 01 15:59:72
TRACK 10 AUDIO
TITLE "Пора"
PERFORMER "Карабас и НесуРазности"
REM COMPOSER ""
FLAGS DCP
INDEX 01 18:38:72
TRACK 11 AUDIO
TITLE "Изобретатель"
PERFORMER "Карабас и НесуРазности"
REM COMPOSER ""
FLAGS DCP
INDEX 01 20:35:15
TRACK 12 AUDIO
TITLE "Библиотека"
PERFORMER "Карабас и НесуРазности"
REM COMPOSER ""
FLAGS DCP
INDEX 01 23:02:15
TRACK 13 AUDIO
TITLE "Рыбка"
PERFORMER "Карабас и НесуРазности"
REM COMPOSER ""
FLAGS DCP
INDEX 01 25:33:42
TRACK 14 AUDIO
TITLE "Отвёртка"
PERFORMER "Карабас и НесуРазности"
REM COMPOSER ""
FLAGS DCP
INDEX 01 27:22:17
TRACK 15 AUDIO
TITLE "Драники"
PERFORMER "Карабас и НесуРазности"
REM COMPOSER ""
FLAGS DCP
INDEX 01 29:51:27
TRACK 16 AUDIO
TITLE "Не пью"
PERFORMER "Карабас и НесуРазности"
REM COMPOSER ""
FLAGS DCP
INDEX 01 31:23:66
TRACK 17 AUDIO
TITLE "Форма"
PERFORMER "Карабас и НесуРазности"
REM COMPOSER ""
FLAGS DCP
INDEX 01 33:59:33
TRACK 18 AUDIO
TITLE "В школу не пойду"
PERFORMER "Карабас и НесуРазности"
REM COMPOSER ""
FLAGS DCP
INDEX 01 36:15:18
TRACK 19 AUDIO
TITLE "Футбол"
PERFORMER "Карабас и НесуРазности"
REM COMPOSER ""
FLAGS DCP
INDEX 01 38:35:42
TRACK 20 AUDIO
TITLE "Настроение"
PERFORMER "Карабас и НесуРазности"
REM COMPOSER ""
FLAGS DCP
INDEX 01 39:30:01

2022. Карабас и НесуРазности - Слава и Деньги

Год издания: 2022
Издатель (лейбл): Авторское издание
Номер по каталогу: KRBS-CD-08
Продолжительность: 00:10:29
Треклист:
1. Слава и деньги
2. Поза
3. Я ухожу
4. Синоптик
5. Под хохлому
6. Подруга Васи

Лог создания рипа

Exact Audio Copy V1.3 from 2. September 2016
Отчёт EAC об извлечении, выполненном 14. февраля 2023, 20:25
Карабас и НесуРазности / Слава и Деньги
Дисковод: ATAPI DVD A DH16A6S Adapter: 1 ID: 0
Режим чтения : Достоверность
Использование точного потока : Да
Отключение кэша аудио : Да
Использование указателей C2 : Нет
Коррекция смещения при чтении : 6
Способность читать области Lead-in и Lead-out : Нет
Заполнение пропущенных сэмплов тишиной : Да
Удаление блоков с тишиной в начале и конце : Нет
При вычислениях CRC использовались нулевые сэмплы : Да
Интерфейс : Встроенный Win32-интерфейс для Win NT/2000
Выходной формат : Пользовательский кодировщик
Выбранный битрейт : 128 kBit/s
Качество : Высокий
Добавление ID3-тега : Нет
Утилита сжатия : C:\\Program Files\\Exact Audio Copy\\FLAC\\FLAC.EXE
Дополнительные параметры : -V -8 -T "Date=%year%" -T "Genre=%genre%" %source%
TOC извлечённого CD
Трек | Старт | Длительность | Начальный сектор | Конечный сектор
---------------------------------------------------------------------
1 | 0:00.00 | 1:51.02 | 0 | 8326
2 | 1:51.02 | 1:50.06 | 8327 | 16582
3 | 3:41.08 | 1:21.36 | 16583 | 22693
4 | 5:02.44 | 1:48.54 | 22694 | 30847
5 | 6:51.23 | 1:55.21 | 30848 | 39493
6 | 8:46.44 | 1:42.49 | 39494 | 47192
Характеристики диапазона извлечения и сообщения об ошибках
Выбранный диапазон
Имя файла D:\\Музыка\\Карабас и НесуРазности - Слава и Деньги.wav
Пиковый уровень 96.6 %
Скорость извлечения 6.1 X
Качество диапазона 100.0 %
CRC теста B595B225
CRC копии B595B225
Копирование... OK
Ошибок не произошло
AccurateRip: сводка
Трек 1 отсутствует в базе данных
Трек 2 отсутствует в базе данных
Трек 3 отсутствует в базе данных
Трек 4 отсутствует в базе данных
Трек 5 отсутствует в базе данных
Трек 6 отсутствует в базе данных
Ни одного трека нет в базе AccurateRip
Конец отчёта
---- CUETools DB Plugin V2.1.6
[CTDB TOCID: Af6tfyAMila96jgIx6k63amKjds-] disk not present in database
Submit result: Af6tfyAMila96jgIx6k63amKjds- has been uploaded
==== Контрольная сумма отчёта 4AD44478AF735159D59AEB7846FDF52F4B9624DAC9D3EB1F72906BA869A60FDF ====

Содержание индексной карты (.CUE)

REM GENRE Rock
REM DATE 2022
REM DISCID 2C027506
REM COMMENT "ExactAudioCopy v1.3"
PERFORMER "Карабас и НесуРазности"
TITLE "Слава и Деньги"
REM COMPOSER ""
FILE "Карабас и НесуРазности - Слава и Деньги.flac" WAVE
TRACK 01 AUDIO
TITLE "Слава и Деньги"
PERFORMER "Карабас и НесуРазности"
REM COMPOSER ""
INDEX 01 00:00:00
TRACK 02 AUDIO
TITLE "Поза"
PERFORMER "Карабас и НесуРазности"
REM COMPOSER ""
INDEX 01 01:51:02
TRACK 03 AUDIO
TITLE "Я ухожу"
PERFORMER "Карабас и НесуРазности"
REM COMPOSER ""
INDEX 01 03:41:08
TRACK 04 AUDIO
TITLE "Синоптик"
PERFORMER "Карабас и НесуРазности"
REM COMPOSER ""
INDEX 01 05:02:44
TRACK 05 AUDIO
TITLE "Под хохлому"
PERFORMER "Карабас и НесуРазности"
REM COMPOSER ""
INDEX 01 06:51:23
TRACK 06 AUDIO
TITLE "Подруга Васи"
PERFORMER "Карабас и НесуРазности"
REM COMPOSER ""
INDEX 01 08:46:44

2023. Карабас и НесуРазности - Выпало 7

Год издания: 2023
Издатель (лейбл): Авторское издание
Номер по каталогу: KRBS-CD-11
Продолжительность: 00:12:09
Треклист:
1. Молчком
2. Как в зоопарке
3. Не злопамятный
4. Лук и чеснок
5. Лев Николаевич
6. Лучше, чем Гринпис
7. Молот

Лог создания рипа

Exact Audio Copy V1.3 from 2. September 2016
Отчёт EAC об извлечении, выполненном 20. июня 2023, 8:06
Карабас и НесуРазности / Выпало 7
Дисковод: ATAPI iHAS122 C Adapter: 1 ID: 0
Режим чтения : Достоверность
Использование точного потока : Да
Отключение кэша аудио : Да
Использование указателей C2 : Нет
Коррекция смещения при чтении : 6
Способность читать области Lead-in и Lead-out : Нет
Заполнение пропущенных сэмплов тишиной : Да
Удаление блоков с тишиной в начале и конце : Нет
При вычислениях CRC использовались нулевые сэмплы : Да
Интерфейс : Встроенный Win32-интерфейс для Win NT/2000
Выходной формат : Пользовательский кодировщик
Выбранный битрейт : 128 kBit/s
Качество : Высокий
Добавление ID3-тега : Нет
Утилита сжатия : C:\\Program Files (x86)\\Exact Audio Copy\\Flac\\flac.exe
Дополнительные параметры : -V -8 -T "Date=%year%" -T "Genre=%genre%" %source%
TOC извлечённого CD
Трек | Старт | Длительность | Начальный сектор | Конечный сектор
---------------------------------------------------------------------
1 | 0:00.00 | 1:33.32 | 0 | 7006
2 | 1:33.32 | 2:12.45 | 7007 | 16951
3 | 3:46.02 | 1:19.21 | 16952 | 22897
4 | 5:05.23 | 1:25.44 | 22898 | 29316
5 | 6:30.67 | 1:58.50 | 29317 | 38216
6 | 8:29.42 | 2:34.42 | 38217 | 49808
7 | 11:04.09 | 1:05.15 | 49809 | 54698
Характеристики диапазона извлечения и сообщения об ошибках
Выбранный диапазон
Имя файла D:\\Музыка\\Карабас и НесуРазности - Выпало 7.wav
Пиковый уровень 97.1 %
Скорость извлечения 6.6 X
Качество диапазона 100.0 %
CRC теста 328B4559
CRC копии 328B4559
Копирование... OK
Ошибок не произошло
AccurateRip: сводка
Трек 1 отсутствует в базе данных
Трек 2 отсутствует в базе данных
Трек 3 отсутствует в базе данных
Трек 4 отсутствует в базе данных
Трек 5 отсутствует в базе данных
Трек 6 отсутствует в базе данных
Трек 7 отсутствует в базе данных
Ни одного трека нет в базе AccurateRip
Конец отчёта
---- CUETools DB Plugin V2.1.6
[CTDB TOCID: sqJwFEzqTqgmL9qqX7g0ntjvqdI-] disk not present in database
Submit result: sqJwFEzqTqgmL9qqX7g0ntjvqdI- has been uploaded
==== Контрольная сумма отчёта 5627EE26F2D7CD917F2230A32D9DDE1BDFDEB45E488BE5B7232450E62E28A83F ====

Содержание индексной карты (.CUE)

REM GENRE Rock
REM DATE 2023
REM DISCID 4D02D907
REM COMMENT "ExactAudioCopy v1.3"
PERFORMER "Карабас и НесуРазности"
TITLE "Выпало 7"
REM COMPOSER ""
FILE "Карабас и НесуРазности - Выпало 7.flac" WAVE
TRACK 01 AUDIO
TITLE "Молчком"
PERFORMER "Карабас и НесуРазности"
REM COMPOSER ""
INDEX 01 00:00:00
TRACK 02 AUDIO
TITLE "Как в зоопарке"
PERFORMER "Карабас и НесуРазности"
REM COMPOSER ""
INDEX 01 01:33:32
TRACK 03 AUDIO
TITLE "Не злопамятный"
PERFORMER "Карабас и НесуРазности"
REM COMPOSER ""
INDEX 01 03:46:02
TRACK 04 AUDIO
TITLE "Лук и чеснок"
PERFORMER "Карабас и НесуРазности"
REM COMPOSER ""
INDEX 01 05:05:23
TRACK 05 AUDIO
TITLE "Лев Николаевич"
PERFORMER "Карабас и НесуРазности"
REM COMPOSER ""
INDEX 01 06:30:67
TRACK 06 AUDIO
TITLE "Лучше, чем Гринпис"
PERFORMER "Карабас и НесуРазности"
REM COMPOSER ""
INDEX 01 08:29:42
TRACK 07 AUDIO
TITLE "Молот"
PERFORMER "Карабас и НесуРазности"
REM COMPOSER ""
INDEX 01 11:04:09

2023. Карабас и НесуРазности - Золото

Год издания: 2023
Издатель (лейбл): Авторское издание
Номер по каталогу: KRBS-CD-12
Продолжительность: 00:33:37
Треклист:
1. Золото
2. Путаны
3. Квадрат
4. Эрудиты
5. Некогда мне
6. Укушу
7. Бухлишко
8. Буквы
9. Традиции
10. Трудовик и физрук
11. Лежит человек
12. Завалил
13. Хули Лопес
14. Баскетболистка
15. Девушка из цветочного города
16. Комары
17. Вам не понять

Лог создания рипа

Exact Audio Copy V1.3 from 2. September 2016
Отчёт EAC об извлечении, выполненном 13. января 2024, 12:27
Карабас и НесуРазности / Золото
Дисковод: Optiarc DVD RW AD-7280S Adapter: 1 ID: 0
Режим чтения : Достоверность
Использование точного потока : Да
Отключение кэша аудио : Да
Использование указателей C2 : Нет
Коррекция смещения при чтении : 48
Способность читать области Lead-in и Lead-out : Нет
Заполнение пропущенных сэмплов тишиной : Да
Удаление блоков с тишиной в начале и конце : Нет
При вычислениях CRC использовались нулевые сэмплы : Да
Интерфейс : Встроенный Win32-интерфейс для Win NT/2000
Выходной формат : Пользовательский кодировщик
Выбранный битрейт : 128 kBit/s
Качество : Высокий
Добавление ID3-тега : Нет
Утилита сжатия : C:\\Program Files\\Exact Audio Copy\\FLAC\\FLAC.EXE
Дополнительные параметры : -V -8 -T "Date=%year%" -T "Genre=%genre%" %source%
TOC извлечённого CD
Трек | Старт | Длительность | Начальный сектор | Конечный сектор
---------------------------------------------------------------------
1 | 0:00.00 | 2:36.29 | 0 | 11728
2 | 2:36.29 | 2:44.00 | 11729 | 24028
3 | 5:20.29 | 2:26.00 | 24029 | 34978
4 | 7:46.29 | 3:03.60 | 34979 | 48763
5 | 10:50.14 | 1:23.66 | 48764 | 55054
6 | 12:14.05 | 1:00.21 | 55055 | 59575
7 | 13:14.26 | 1:58.67 | 59576 | 68492
8 | 15:13.18 | 1:38.14 | 68493 | 75856
9 | 16:51.32 | 1:47.50 | 75857 | 83931
10 | 18:39.07 | 2:02.07 | 83932 | 93088
11 | 20:41.14 | 2:12.33 | 93089 | 103021
12 | 22:53.47 | 0:47.42 | 103022 | 106588
13 | 23:41.14 | 1:25.36 | 106589 | 112999
14 | 25:06.50 | 1:00.66 | 113000 | 117565
15 | 26:07.41 | 3:02.21 | 117566 | 131236
16 | 29:09.62 | 2:25.60 | 131237 | 142171
17 | 31:35.47 | 2:02.01 | 142172 | 151322
Характеристики диапазона извлечения и сообщения об ошибках
Выбранный диапазон
Имя файла E:\\Музыка\\Карабас и НесуРазности - Золото.wav
Пиковый уровень 99.6 %
Скорость извлечения 3.6 X
Качество диапазона 100.0 %
CRC теста B12FE1AD
CRC копии B12FE1AD
Копирование... OK
Ошибок не произошло
AccurateRip: сводка
Трек 1 отсутствует в базе данных
Трек 2 отсутствует в базе данных
Трек 3 отсутствует в базе данных
Трек 4 отсутствует в базе данных
Трек 5 отсутствует в базе данных
Трек 6 отсутствует в базе данных
Трек 7 отсутствует в базе данных
Трек 8 отсутствует в базе данных
Трек 9 отсутствует в базе данных
Трек 10 отсутствует в базе данных
Трек 11 отсутствует в базе данных
Трек 12 отсутствует в базе данных
Трек 13 отсутствует в базе данных
Трек 14 отсутствует в базе данных
Трек 15 отсутствует в базе данных
Трек 16 отсутствует в базе данных
Трек 17 отсутствует в базе данных
Ни одного трека нет в базе AccurateRip
Конец отчёта
==== Контрольная сумма отчёта 3AD7D48BCCF5A85165B4B2B80B79EDEBC6A810A9A5D29C2DA8EEE69D1EBC3529 ====

Содержание индексной карты (.CUE)

REM GENRE Rock
REM DATE 2023
REM DISCID E307E111
REM COMMENT "ExactAudioCopy v1.3"
PERFORMER "Карабас и НесуРазности"
TITLE "Золото"
REM COMPOSER ""
FILE "Карабас и НесуРазности - Золото.flac" WAVE
TRACK 01 AUDIO
TITLE "Золото"
PERFORMER "Карабас и НесуРазности"
REM COMPOSER ""
INDEX 01 00:00:00
TRACK 02 AUDIO
TITLE "Путаны"
PERFORMER "Карабас и НесуРазности"
REM COMPOSER ""
INDEX 01 02:36:29
TRACK 03 AUDIO
TITLE "Квадрат"
PERFORMER "Карабас и НесуРазности"
REM COMPOSER ""
INDEX 01 05:20:29
TRACK 04 AUDIO
TITLE "Эрудиты"
PERFORMER "Карабас и НесуРазности"
REM COMPOSER ""
INDEX 01 07:46:29
TRACK 05 AUDIO
TITLE "Некогда мне"
PERFORMER "Карабас и НесуРазности"
REM COMPOSER ""
INDEX 01 10:50:14
TRACK 06 AUDIO
TITLE "Укушу"
PERFORMER "Карабас и НесуРазности"
REM COMPOSER ""
INDEX 01 12:14:05
TRACK 07 AUDIO
TITLE "Бухлишко"
PERFORMER "Карабас и НесуРазности"
REM COMPOSER ""
INDEX 01 13:14:26
TRACK 08 AUDIO
TITLE "Буквы"
PERFORMER "Карабас и НесуРазности"
REM COMPOSER ""
INDEX 01 15:13:18
TRACK 09 AUDIO
TITLE "Традиции"
PERFORMER "Карабас и НесуРазности"
REM COMPOSER ""
INDEX 01 16:51:32
TRACK 10 AUDIO
TITLE "Трудовик и физрук"
PERFORMER "Карабас и НесуРазности"
REM COMPOSER ""
INDEX 01 18:39:07
TRACK 11 AUDIO
TITLE "Лежит человек"
PERFORMER "Карабас и НесуРазности"
REM COMPOSER ""
INDEX 01 20:41:14
TRACK 12 AUDIO
TITLE "Завалил"
PERFORMER "Карабас и НесуРазности"
REM COMPOSER ""
INDEX 01 22:53:47
TRACK 13 AUDIO
TITLE "Хули Лопес"
PERFORMER "Карабас и НесуРазности"
REM COMPOSER ""
INDEX 01 23:41:14
TRACK 14 AUDIO
TITLE "Баскетболистка"
PERFORMER "Карабас и НесуРазности"
REM COMPOSER ""
INDEX 01 25:06:50
TRACK 15 AUDIO
TITLE "Девушка из цветочного города"
PERFORMER "Карабас и НесуРазности"
REM COMPOSER ""
INDEX 01 26:07:41
TRACK 16 AUDIO
TITLE "Комары"
PERFORMER "Карабас и НесуРазности"
REM COMPOSER ""
INDEX 01 29:09:62
TRACK 17 AUDIO
TITLE "Вам не понять"
PERFORMER "Карабас и НесуРазности"
REM COMPOSER ""
INDEX 01 31:35:47

Об исполнителе (группе)

Владимир «Карабас» Капцов является одним из основателей легендарной группы «ХЗ». После распада коллектива он основал новый проект – «НесуРазности» с другим сопровождающим составом и автором текстов. Творчество музыканта можно определить как «весёлые песни о жизни и любви…», непредсказуемо балансирующие между остроумием и пошлостью.Страница музыканта в ВК
[Профиль] [ЛС]
Показать сообщения:    
Ответить на тему

Текущее время: 14-Июл 05:30

Часовой пояс: UTC ± 0



Вы не можете начинать темы
Вы не можете отвечать на сообщения
Вы не можете редактировать свои сообщения
Вы не можете удалять свои сообщения
Вы не можете голосовать в опросах
Вы не можете прикреплять файлы к сообщениям
Вы не можете скачивать файлы

[  Время выполнения: 0.0824 сек  |  MySQL: 0.0105 сек (13%) · 4 запр.  |  сжатие Gzip: выкл  |  Память: 429.85 KB / 1.99 MB / 1.6 MB  ] |  |  |