Леди Баг и Супер-Кот: Пробуждение силы / Miraculous - Le film / Ladybug & Cat Noir: Awakening (Джереми Заг) [2023, Мультфильм, семейный, детский, фэнтези, мелодрама, комедия, приключения, BDRemux 1080p] Dub (Paragraph Media) + Original

Ответить на тему
Статистика раздачи
Размер:  25.67 GB   |    Зарегистрирован:  12 дня   |    Скачано:  4 раза
Список скачавших: Нет
Сидов:  2  [  0 KB/s  ]   Личеров:  5  [  0 KB/s  ]   Подробная статистика пиров
     
 
Автор Сообщение

Kon912 ®

Пол: Не указан

Зарегистрированный: 18 дня

Сообщений: 783

Создавать темы 11-Фев-2024 20:24 | #1 · Автор

[Цитировать]

Леди Баг и Супер-Кот: Пробуждение силы / Miraculous - Le film / Ladybug & Cat Noir: Awakening- Год выхода: 2023
Страна: Франция
Студия: Fantawild Animation, SND, SND Groupe M6, The Awakening Production, Zagtoon
Жанр: Мультфильм, семейный, детский, фэнтези, мелодрама, комедия, приключения
Продолжительность: 01:39:22
Перевод: Профессиональный (полное дублирование) | Paragraph Media |-Режиссер:
Джереми Заг-Роли озвучивают:
Анук Отбуа, Бенжамен Болен, Антуан Томе, Фанни Блок, Джинн Шартье, Мари Шевало, Флора Капрелан, Тьерри Казазиан, Джесси Ламботт, Марсаль Лемину-Описание:
В обыкновенной французской школе учатся девочка Маринетт и мальчик Адриан, в которого она влюблена. Казалось бы, классическая история первой любви, но эти ребята совсем не те, за кого себя выдают. Когда городу угрожает опасность, Маринетт превращается в супергероиню Леди Баг, а Адриан — в Супер-Кота. Их невероятные способности помогают бороться со злом, но при этом никто из них не знает, кто на самом деле скрывается под маской.- -Качество: BDRemux 1080p
Формат: MKV
Видео: MPEG-4 AVC, 1920x1080, 32.8 Mbit/s, 24.000 fps
Аудио #01: 48 kHz, AC3, 5.1, 448 Kbps | Дублированный | Paragraph Media | RUS |
Аудио #02: 48 kHz, DTS-HD MA, 5.1, 3757 Kbps | Оригинал | ENG |
Субтитры: Отсутствуют-

Скриншоты

MI

General
Unique ID : 118096910449612848102719853234127151592 (0x58D8A33AE5BACF86E5ABD8714668A1E8)
Complete name : H:VideoHLadybug.and.Cat.Noir.Awakening.2023.BDREMUX.1080p.seleZen.mkv
Format : Matroska
Format version : Version 4
File size : 25.7 GiB
Duration : 1 h 39 min
Overall bit rate mode : Variable
Overall bit rate : 37.0 Mb/s
Frame rate : 24.000 FPS
Movie name : Ladybug & Cat Noir: Awakening 2023 from seleZen
Encoded date : 2023-11-01 20:39:52 UTC
Writing application : mkvmerge v79.0 ('Funeral Pyres') 64-bit
Writing library : libebml v1.4.4 + libmatroska v1.7.1
Video
ID : 1
ID in the original source m : 4113 (0x1011)
Format : AVC
Format/Info : Advanced Video Codec
Format profile : High@L4.1
Format settings : CABAC / 4 Ref Frames
Format settings, CABAC : Yes
Format settings, Reference : 4 frames
Codec ID : V_MPEG4/ISO/AVC
Duration : 1 h 39 min
Bit rate mode : Variable
Bit rate : 32.8 Mb/s
Maximum bit rate : 36.0 Mb/s
Width : 1 920 pixels
Height : 1 080 pixels
Display aspect ratio : 16:9
Frame rate mode : Constant
Frame rate : 24.000 FPS
Color space : YUV
Chroma subsampling : 4:2:0
Bit depth : 8 bits
Scan type : Progressive
Bits/(Pixel*Frame) : 0.659
Time code of first frame : 00:00:00:00
Stream size : 22.7 GiB (89%)
Language : English
Default : Yes
Forced : No
Original source medium : Blu-ray
Audio #1
ID : 2
Format : AC-3
Format/Info : Audio Coding 3
Commercial name : Dolby Digital
Codec ID : A_AC3
Duration : 1 h 39 min
Bit rate mode : Constant
Bit rate : 448 kb/s
Channel(s) : 6 channels
Channel layout : L R C LFE Ls Rs
Sampling rate : 48.0 kHz
Frame rate : 31.250 FPS (1536 SPF)
Compression mode : Lossy
Stream size : 318 MiB (1%)
Title : Dub
Language : Russian
Service kind : Complete Main
Default : Yes
Forced : No
Audio #2
ID : 3
ID in the original source m : 4353 (0x1101)
Format : DTS XLL
Format/Info : Digital Theater Systems
Commercial name : DTS-HD Master Audio
Codec ID : A_DTS
Duration : 1 h 39 min
Bit rate mode : Variable
Bit rate : 3 757 kb/s
Channel(s) : 6 channels
Channel layout : C L R Ls Rs LFE
Sampling rate : 48.0 kHz
Frame rate : 93.750 FPS (512 SPF)
Bit depth : 24 bits
Compression mode : Lossless
Stream size : 2.61 GiB (10%)
Title : Original
Language : English
Default : No
Forced : No
Original source medium : Blu-ray
Menu
00:00:00.000 : en:Chapter 01
00:10:23.000 : en:Chapter 02
00:20:03.333 : en:Chapter 03
00:28:06.916 : en:Chapter 04
00:39:06.958 : en:Chapter 05
00:50:39.208 : en:Chapter 06
01:01:33.666 : en:Chapter 07
01:11:51.916 : en:Chapter 08
01:20:54.000 : en:Chapter 09
01:31:36.875 : en:Chapter 10
Леди Баг и Супер-Кот: Пробуждение силы / Miraculous - Le film / Ladybug & Cat Noir: Awakening (Джереми Заг) [2023, Мультфильм, семейный, детский, фэнтези, мелодрама, комедия, приключения, BDRemux 1080p] Dub (Paragraph Media) + Original [rutor.su-44594].torrent 
Торрент: Зарегистрирован [ 2024-02-11 20:24 ]

info_hash: 429DB78315B5A6A5C774C2F5B4BB765E5BEB1031

Скачать .torrent

Скачать

33 KB

Статус: проверено · admin · 10 дня назад
Скачано: 4 раза
Размер: 25.67 GB
[Профиль] [ЛС]
Показать сообщения:    
Ответить на тему

Текущее время: 24-Фев 19:43

Часовой пояс: UTC ± 0



Вы не можете начинать темы
Вы не можете отвечать на сообщения
Вы не можете редактировать свои сообщения
Вы не можете удалять свои сообщения
Вы не можете голосовать в опросах
Вы не можете прикреплять файлы к сообщениям
Вы можете скачивать файлы

[  Время выполнения: 0.0395 сек  |  MySQL: 0.0100 сек (25%) · 8 запр.  |  сжатие Gzip: выкл  |  Память: 429.85 KB / 2.37 MB / 1.44 MB  ] |  |  |