Я иду играть (Анна Зайцева) [2021, Триллер, BDRip-AVC] [GER Transfer] Original (Лицензия)

Ответить на тему
Статистика раздачи
Размер:  1.46 GB   |    Зарегистрирован:  20 дня   |    Скачано:  3 раза
Список скачавших: Нет
Сидов:  1  [  0 KB/s  ]   Подробная статистика пиров
     
 
Автор Сообщение

Kon912 ®

Пол: Не указан

Зарегистрированный: 22 дня

Сообщений: 840

Создавать темы 07-Фев-2024 19:05 | #1 · Автор

[Цитировать]

Я иду играть- Год выхода: 2021
Страна: Россия
Студия: МТС Медиа, Базелевс Продакшн
Жанр: Триллер
Продолжительность: 01:33:49
Перевод: Не требуется | Blu-ray GER | Лицензия -Режиссер:
Анна Зайцева-В ролях:
Анна Потебня, Тимофей Елецкий, Екатерина Стулова, Диана Шульмина, Ольга Пипченко, Полина Ватага, Павел Юлку, Даня Киселёв, Анастасия Брацюн-О фильме:
Провинциальный город одна за другой сотрясают загадочные смерти подростков. В попытках разобраться в причинах гибели сестры школьница Дана находит в её соцсетях таинственную группу. Здесь подростки получают задания, не выполнив которые, они рискуют потерять друзей, родных и собственную жизнь. Чтобы найти организаторов группы, Дане придётся вступить в опасную игру на выживание.- -Качество: BDRip-AVC
Формат: MKV
Видео: MPEG-4 AVC, 1024x576 (16:9), 1778 kbps, 23.976 fps
Аудио: AC3, 48 kHz, 6 ch, ~448.00 kbps avg | русский | Blu-ray GER
Субтитры: Отсутствуют-

Скриншоты

MI

Общее
Уникальный идентификатор : 201057286076451793587500139556432291333 (0x9742398B20F8B78306371F5B4A30A605)
Полное имя : O:Ya.Idu.Gulyat.2021.BDRip.x264.ExKinoRay.mkv
Формат : Matroska
Версия формата : Version 4
Размер файла : 1,46 Гбайт
Продолжительность : 1 ч. 33 м.
Общий поток : 2 225 Кбит/сек
Название фильма : Я иду играть (2021)
Дата кодирования : UTC 2023-11-25 18:13:44
Программа кодирования : mkvmerge v74.0.0 ('You Oughta Know') 64-bit
Библиотека кодирования : libebml v1.4.4 + libmatroska v1.7.1
Видео
Идентификатор : 1
Формат : AVC
Формат/Информация : Advanced Video Codec
Профиль формата : High@L4.1
Настройки формата : CABAC / 11 Ref Frames
Параметр CABAC формата : Да
Параметр RefFrames формата : 11 кадров
Идентификатор кодека : V_MPEG4/ISO/AVC
Продолжительность : 1 ч. 33 м.
Битрейт : 1 778 Кбит/сек
Ширина : 1 024 пикселя
Высота : 576 пикселей
Соотношение сторон : 16:9
Режим частоты кадров : Постоянный
Частота кадров : 23,976 (24000/1001) кадра/сек
Цветовое пространство : YUV
Субдискретизация насыщенности : 4:2:0
Битовая глубина : 8 бит
Тип развёртки : Прогрессивная
Бит/(Пиксели*Кадры) : 0.126
Размер потока : 1,16 Гбайт (80%)
Заголовок : potroks
Библиотека кодирования : x264 core 164 r3095 baee400
Настройки программы : cabac=1 / ref=11 / deblock=1:-2:-2 / analyse=0x3:0x133 / me=umh / subme=11 / psy=1 / psy_rd=1.05:0.05 / mixed_ref=1 / me_range=32 / chroma_me=0 / trellis=2 / 8x8dct=1 / cqm=0 / deadzone=21,11 / fast_pskip=0 / chroma_qp_offset=-3 / threads=19 / lookahead_threads=4 / sliced_threads=0 / nr=0 / decimate=1 / interlaced=0 / bluray_compat=0 / constrained_intra=0 / bframes=11 / b_pyramid=2 / b_adapt=2 / b_bias=0 / direct=3 / weightb=1 / open_gop=0 / weightp=2 / keyint=250 / keyint_min=23 / scenecut=40 / intra_refresh=0 / rc_lookahead=200 / rc=2pass / mbtree=0 / bitrate=1778 / ratetol=1.0 / qcomp=0.70 / qpmin=0 / qpmax=69 / qpstep=4 / cplxblur=20.0 / qblur=0.5 / vbv_maxrate=50000 / vbv_bufsize=62500 / nal_hrd=none / filler=0 / ip_ratio=1.40 / pb_ratio=1.30 / aq=1:0.70
Язык : German
Default : Да
Forced : Нет
Цветовой диапазон : Limited
Основные цвета : BT.709
Характеристики трансфера : BT.709
Коэффициенты матрицы : BT.709
Аудио
Идентификатор : 2
Формат : AC-3
Формат/Информация : Audio Coding 3
Коммерческое название : Dolby Digital
Идентификатор кодека : A_AC3
Продолжительность : 1 ч. 33 м.
Вид битрейта : Постоянный
Битрейт : 448 Кбит/сек
Каналы : 6 каналов
Channel layout : L R C LFE Ls Rs
Частота : 48,0 КГц
Частота кадров : 31,250 кадров/сек (1536 SPF)
Битовая глубина : 32 бит
Метод сжатия : С потерями
Размер потока : 301 Мбайт (20%)
Заголовок : DD | 5.1 @ 448 kbps
Язык : Russian
Service kind : Complete Main
Default : Да
Forced : Нет
Меню
00:00:00.000 : de:Chapter 01
00:08:33.554 : de:Chapter 02
00:19:50.397 : de:Chapter 03
00:25:36.534 : de:Chapter 04
00:31:13.204 : de:Chapter 05
00:40:00.731 : de:Chapter 06
00:50:48.003 : de:Chapter 07
00:59:07.835 : de:Chapter 08
01:04:46.924 : de:Chapter 09
01:16:12.943 : de:Chapter 10
01:23:00.350 : de:Chapter 11
01:31:39.660 : de:Chapter 12
01:33:47.705 : de:Chapter 13
Я иду играть (Анна Зайцева) [2021, Триллер, BDRip-AVC] [GER Transfer] Original (Лицензия) [rutor.su-44051].torrent 
Торрент: Зарегистрирован [ 2024-02-07 19:05 ]

info_hash: 521F64AD33D57995FBF698E2DD38D608032EEA3B

Скачать .torrent

Скачать

59 KB

Статус: проверено · Kon912 · 20 дня назад
Скачано: 3 раза
Размер: 1.46 GB
[Профиль] [ЛС]
Показать сообщения:    
Ответить на тему

Текущее время: 28-Фев 16:09

Часовой пояс: UTC ± 0



Вы не можете начинать темы
Вы не можете отвечать на сообщения
Вы не можете редактировать свои сообщения
Вы не можете удалять свои сообщения
Вы не можете голосовать в опросах
Вы не можете прикреплять файлы к сообщениям
Вы можете скачивать файлы

[  Время выполнения: 0.1149 сек  |  MySQL: 0.0288 сек (25%) · 8 запр.  |  сжатие Gzip: выкл  |  Память: 429.85 KB / 2.37 MB / 1.44 MB  ] |  |  |