(Italo-Disco) [CD] VA - Italo Disco - The Lost Legends, Vol. 1-5 (5 CD) - 2017, FLAC (tracks+.cue), lossless

Ответить на тему
Статистика раздачи
Размер:  2.39 GB   |    Зарегистрирован:  2 месяца 21 день   |    Скачано:  9 раза
Список скачавших: Нет

Полного источника не было: Никогда

     
 
Автор Сообщение

MAGNAT ®

Пол: Мужской

Зарегистрированный: 4 года 10 месяца

Сообщений: 19527

Откуда: Москва

Создавать темы 03-Дек-2023 11:06 | #1 · Автор

[Цитировать]

Italo Disco - The Lost Legends, Vol. 1-5
Жанр: Italo-Disco
Год издания: 2017
Носитель: CD
Страна-производитель: Netherlands
Издатель (лейбл): Disco Magic Melody
Аудиокодек: FLAC (*.flac)
Тип рипа: tracks+.cue
Битрейт аудио: lossless
Общая продолжительность: 5~06:30:04
Треклист:

2017 VA - Italo Disco (The Lost Legends Vol. 1)

Номер по каталогу: DMM CD 01 I
Продолжительность: 01:19:29
01 Ryan Paris - Besoin D'amour [04:52]
02 Toys For Boys - Your Body, Your Feeling [04:27]
03 Regina - Mira Me [06:26]
04 Gatsby - Love Sign [05:44]
05 Paul Paul - Burn On The Flames [05:42]
06 Ghery M. & Ocean D. - Love's Emotions [06:29]
07 Clad - Song Of Arabia [07:08]
08 Rudy - Different Words [05:23]
09 Frank-Hino - Flying Dream [05:10]
10 Tato - Crazy Boy [06:54]
11 Tommy Kelwin - Tokyo Nights [08:11]
12 Sign System - Stay With Me (Remixed Version '85) [07:07]
13 Get Flash - Get Flash [05:56]

Лог создания рипа

Exact Audio Copy V1.1 from 23. June 2015
EAC extraction logfile from 31. March 2017, 12:19
Unknown Artist / Unknown Title
Used drive : ATAPI iHOS104 Adapter: 1 ID: 0
Read mode : Secure
Utilize accurate stream : Yes
Defeat audio cache : Yes
Make use of C2 pointers : No
Read offset correction : 696
Overread into Lead-In and Lead-Out : No
Fill up missing offset samples with silence : Yes
Delete leading and trailing silent blocks : No
Null samples used in CRC calculations : Yes
Used interface : Native Win32 interface for Win NT & 2000
Gap handling : Appended to previous track
Used output format : User Defined Encoder
Selected bitrate : 128 kBit/s
Quality : High
Add ID3 tag : No
Command line compressor : C:\Program Files (x86)\Exact Audio Copy\Flac\flac.exe
Additional command line options : -8 -V -T "ARTIST=%artist%" -T "TITLE=%title%" -T "ALBUM=%albumtitle%" -T "DATE=%year%" -T "TRACKNUMBER=%tracknr%" -T "GENRE=%genre%" -T "COMMENT=Ripped Using EAC (Secure Mode)" -T "BAND=%albuminterpret%" -T "ALBUMARTIST=%albuminterpret%" -T "COMPOSER=%composer%" %haslyrics%--tag-from-file=LYRICS="%lyricsfile%"%haslyrics% -T "DISCNUMBER=%cdnumber%" -T "TOTALDISCS=%totalcds%" -T "TOTALTRACKS=%numtracks%" %hascover%--picture="%coverfile%"%hascover% %source% -o %dest%
TOC of the extracted CD
Track | Start | Length | Start sector | End sector
---------------------------------------------------------
1 | 0:00.00 | 4:51.55 | 0 | 21879
2 | 4:51.55 | 4:26.43 | 21880 | 41872
3 | 9:18.23 | 6:25.38 | 41873 | 70785
4 | 15:43.61 | 5:43.68 | 70786 | 96578
5 | 21:27.54 | 5:41.54 | 96579 | 122207
6 | 27:09.33 | 6:29.37 | 122208 | 151419
7 | 33:38.70 | 7:08.20 | 151420 | 183539
8 | 40:47.15 | 5:23.11 | 183540 | 207775
9 | 46:10.26 | 5:09.58 | 207776 | 231008
10 | 51:20.09 | 6:54.20 | 231009 | 262078
11 | 58:14.29 | 8:11.12 | 262079 | 298915
12 | 66:25.41 | 7:07.12 | 298916 | 330952
13 | 73:32.53 | 5:56.31 | 330953 | 357683
Track 1
Filename E:\EAC Rips\2017 - Various - Italo Disco (The Lost Legends Vol. 1)\01 - Unknown Artist - Track01.wav
Pre-gap length 0:00:02.00
Peak level 81.5 %
Extraction speed 3.0 X
Track quality 100.0 %
Test CRC B20E4E74
Copy CRC B20E4E74
Track not present in AccurateRip database
Copy OK
Track 2
Filename E:\EAC Rips\2017 - Various - Italo Disco (The Lost Legends Vol. 1)\02 - Unknown Artist - Track02.wav
Pre-gap length 0:00:03.65
Peak level 82.6 %
Extraction speed 2.7 X
Track quality 99.9 %
Test CRC 10AA2385
Copy CRC 10AA2385
Track not present in AccurateRip database
Copy OK
Track 3
Filename E:\EAC Rips\2017 - Various - Italo Disco (The Lost Legends Vol. 1)\03 - Unknown Artist - Track03.wav
Pre-gap length 0:00:03.65
Peak level 93.3 %
Extraction speed 3.8 X
Track quality 100.0 %
Test CRC 0B43451F
Copy CRC 0B43451F
Track not present in AccurateRip database
Copy OK
Track 4
Filename E:\EAC Rips\2017 - Various - Italo Disco (The Lost Legends Vol. 1)\04 - Unknown Artist - Track04.wav
Pre-gap length 0:00:03.65
Peak level 86.7 %
Extraction speed 4.1 X
Track quality 100.0 %
Test CRC 200546FE
Copy CRC 200546FE
Track not present in AccurateRip database
Copy OK
Track 5
Filename E:\EAC Rips\2017 - Various - Italo Disco (The Lost Legends Vol. 1)\05 - Unknown Artist - Track05.wav
Pre-gap length 0:00:03.65
Peak level 79.9 %
Extraction speed 4.4 X
Track quality 100.0 %
Test CRC BD80EF5D
Copy CRC BD80EF5D
Track not present in AccurateRip database
Copy OK
Track 6
Filename E:\EAC Rips\2017 - Various - Italo Disco (The Lost Legends Vol. 1)\06 - Unknown Artist - Track06.wav
Pre-gap length 0:00:03.65
Peak level 71.5 %
Extraction speed 4.7 X
Track quality 100.0 %
Test CRC E5EC88E4
Copy CRC E5EC88E4
Track not present in AccurateRip database
Copy OK
Track 7
Filename E:\EAC Rips\2017 - Various - Italo Disco (The Lost Legends Vol. 1)\07 - Unknown Artist - Track07.wav
Pre-gap length 0:00:03.65
Peak level 72.1 %
Extraction speed 4.4 X
Track quality 99.9 %
Test CRC BD92EAC3
Copy CRC BD92EAC3
Track not present in AccurateRip database
Copy OK
Track 8
Filename E:\EAC Rips\2017 - Various - Italo Disco (The Lost Legends Vol. 1)\08 - Unknown Artist - Track08.wav
Pre-gap length 0:00:03.65
Peak level 69.7 %
Extraction speed 5.2 X
Track quality 100.0 %
Test CRC 075DBD1E
Copy CRC 075DBD1E
Track not present in AccurateRip database
Copy OK
Track 9
Filename E:\EAC Rips\2017 - Various - Italo Disco (The Lost Legends Vol. 1)\09 - Unknown Artist - Track09.wav
Pre-gap length 0:00:03.65
Peak level 80.4 %
Extraction speed 4.4 X
Track quality 99.9 %
Test CRC 3B3C1B14
Copy CRC 3B3C1B14
Track not present in AccurateRip database
Copy OK
Track 10
Filename E:\EAC Rips\2017 - Various - Italo Disco (The Lost Legends Vol. 1)\10 - Unknown Artist - Track10.wav
Pre-gap length 0:00:03.65
Peak level 94.1 %
Extraction speed 5.0 X
Track quality 99.9 %
Test CRC A06252FD
Copy CRC A06252FD
Track not present in AccurateRip database
Copy OK
Track 11
Filename E:\EAC Rips\2017 - Various - Italo Disco (The Lost Legends Vol. 1)\11 - Unknown Artist - Track11.wav
Pre-gap length 0:00:03.65
Peak level 86.5 %
Extraction speed 6.1 X
Track quality 100.0 %
Test CRC 60E427E5
Copy CRC 60E427E5
Track not present in AccurateRip database
Copy OK
Track 12
Filename E:\EAC Rips\2017 - Various - Italo Disco (The Lost Legends Vol. 1)\12 - Unknown Artist - Track12.wav
Pre-gap length 0:00:03.65
Peak level 86.9 %
Extraction speed 6.3 X
Track quality 100.0 %
Test CRC E2231E14
Copy CRC E2231E14
Track not present in AccurateRip database
Copy OK
Track 13
Filename E:\EAC Rips\2017 - Various - Italo Disco (The Lost Legends Vol. 1)\13 - Unknown Artist - Track13.wav
Pre-gap length 0:00:03.65
Peak level 82.3 %
Extraction speed 6.4 X
Track quality 100.0 %
Test CRC D5A4A78E
Copy CRC D5A4A78E
Track not present in AccurateRip database
Copy OK
None of the tracks are present in the AccurateRip database
No errors occurred
End of status report
---- CUETools DB Plugin V2.1.6
[CTDB TOCID: kQikTy4oo3UdclJXn9aDhRqzQN4-] disk not present in database
Submit result: kQikTy4oo3UdclJXn9aDhRqzQN4- has been uploaded
==== Log checksum C2B94923590949D4F9C372AF62FF079F424F0581D4A281AD1BDA671DCCC37E68 ====

Содержание индексной карты (.CUE)

REM DISCID C012A10D
REM COMMENT "ExactAudioCopy v1.1"
PERFORMER "Unknown Artist"
TITLE "Unknown Title"
FILE "01 - Unknown Artist - Track01.wav" WAVE
TRACK 01 AUDIO
TITLE "Track01"
PERFORMER "Unknown Artist"
INDEX 01 00:00:00
TRACK 02 AUDIO
TITLE "Track02"
PERFORMER "Unknown Artist"
INDEX 00 04:47:65
FILE "02 - Unknown Artist - Track02.wav" WAVE
INDEX 01 00:00:00
TRACK 03 AUDIO
TITLE "Track03"
PERFORMER "Unknown Artist"
INDEX 00 04:22:53
FILE "03 - Unknown Artist - Track03.wav" WAVE
INDEX 01 00:00:00
TRACK 04 AUDIO
TITLE "Track04"
PERFORMER "Unknown Artist"
INDEX 00 06:21:48
FILE "04 - Unknown Artist - Track04.wav" WAVE
INDEX 01 00:00:00
TRACK 05 AUDIO
TITLE "Track05"
PERFORMER "Unknown Artist"
INDEX 00 05:40:03
FILE "05 - Unknown Artist - Track05.wav" WAVE
INDEX 01 00:00:00
TRACK 06 AUDIO
TITLE "Track06"
PERFORMER "Unknown Artist"
INDEX 00 05:37:64
FILE "06 - Unknown Artist - Track06.wav" WAVE
INDEX 01 00:00:00
TRACK 07 AUDIO
TITLE "Track07"
PERFORMER "Unknown Artist"
INDEX 00 06:25:47
FILE "07 - Unknown Artist - Track07.wav" WAVE
INDEX 01 00:00:00
TRACK 08 AUDIO
TITLE "Track08"
PERFORMER "Unknown Artist"
INDEX 00 07:04:30
FILE "08 - Unknown Artist - Track08.wav" WAVE
INDEX 01 00:00:00
TRACK 09 AUDIO
TITLE "Track09"
PERFORMER "Unknown Artist"
INDEX 00 05:19:21
FILE "09 - Unknown Artist - Track09.wav" WAVE
INDEX 01 00:00:00
TRACK 10 AUDIO
TITLE "Track10"
PERFORMER "Unknown Artist"
INDEX 00 05:05:68
FILE "10 - Unknown Artist - Track10.wav" WAVE
INDEX 01 00:00:00
TRACK 11 AUDIO
TITLE "Track11"
PERFORMER "Unknown Artist"
INDEX 00 06:50:30
FILE "11 - Unknown Artist - Track11.wav" WAVE
INDEX 01 00:00:00
TRACK 12 AUDIO
TITLE "Track12"
PERFORMER "Unknown Artist"
INDEX 00 08:07:22
FILE "12 - Unknown Artist - Track12.wav" WAVE
INDEX 01 00:00:00
TRACK 13 AUDIO
TITLE "Track13"
PERFORMER "Unknown Artist"
INDEX 00 07:03:22
FILE "13 - Unknown Artist - Track13.wav" WAVE
INDEX 01 00:00:00

Лог проверки качества

-----------------------
DON'T MODIFY THIS FILE
-----------------------
PERFORMER: auCDtect Task Manager, ver. 1.6.0 RC1 build 1.6.0.1
Copyright (c) 2008-2010 y-soft. All rights reserved
http://y-soft.org
ANALYZER: auCDtect: CD records authenticity detector, version 0.8.2
Copyright (c) 2004 Oleg Berngardt. All rights reserved.
Copyright (c) 2004 Alexander Djourik. All rights reserved.
FILE: 01 - Ryan Paris - Besoin D'amour.flac
Size: 31151607 Hash: BACDB939EC060928E811D69EB2EA47AE Accuracy: -m0
Conclusion: CDDA 100%
Signature: 7DF4830F9949191D311D1DA8539F5E16E2B7D784
FILE: 02 - Toys For Boys - Your Body, Your Feeling.flac
Size: 28870440 Hash: 4A8C2676ADECF0BE37F4236D88CCB6F3 Accuracy: -m0
Conclusion: CDDA 100%
Signature: 1CB37A72B427F8F02CAC20EB90761C04B00C8E20
FILE: 03 - Regina - Mira Me.flac
Size: 44698252 Hash: A65B2AA3546D2E3F3996CBCD7C9712BD Accuracy: -m0
Conclusion: CDDA 100%
Signature: 3DB0098E92177675110507DD461363BE34149B68
FILE: 04 - Gatsby - Love Sign.flac
Size: 39271462 Hash: 377D9B3B7D4DC53758E9CFF60B3BBDC2 Accuracy: -m0
Conclusion: CDDA 100%
Signature: 995E1A3E7948D61DB2D6F62E62006958D31818C0
FILE: 05 - Paul Paul - Burn On The Flames.flac
Size: 37642717 Hash: 953FFE4AF7AA495B863433C8F1D222FC Accuracy: -m0
Conclusion: CDDA 100%
Signature: 00B5DF5463901816868AB74364B130D61F0F4A6D
FILE: 06 - Ghery M. & Ocean D. - Love's Emotions.flac
Size: 42295579 Hash: 9C2668E3E185D172ABF07E7DA9B1709D Accuracy: -m0
Conclusion: CDDA 100%
Signature: DAF2DED4B06A03CB36583F2F5BAE974E79703D97
FILE: 07 - Clad - Song Of Arabia.flac
Size: 51463792 Hash: A46E86792054CDDA37F38DE62EC53157 Accuracy: -m0
Conclusion: CDDA 100%
Signature: F5857F771D891D7C45EE129D3EE7FEF7D0058B36
FILE: 08 - Rudy - Different Words.flac
Size: 35467790 Hash: 398AEB3FE7763E65D01BD41BAED75A89 Accuracy: -m0
Conclusion: CDDA 100%
Signature: 71B325DEBB1C2E934536E3A8485F6EF9420BEC4C
FILE: 09 - Frank-Hino - Flying Dream.flac
Size: 34622794 Hash: B9755044DF3C2D397D5EB68C7C211138 Accuracy: -m0
Conclusion: CDDA 100%
Signature: 0B8F9489665C6F5BB1C33727728DAC0B1ABD691B
FILE: 10 - Tato - Crazy Boy.flac
Size: 44371976 Hash: BFEA818062E1325099CFB46F3DC19C06 Accuracy: -m0
Conclusion: CDDA 100%
Signature: 1D780B55788CFCDF268A79DAA234761179651316
FILE: 11 - Tommy Kelwin - Tokyo Nights.flac
Size: 52812792 Hash: 6400FC663B014C03368311C53ED34F9E Accuracy: -m0
Conclusion: CDDA 100%
Signature: 796C3A3E0FD59C742BCCAA5740E4819C95A04249
FILE: 12 - Sign System - Stay With Me (Remixed Version '85).flac
Size: 50455607 Hash: D7DE2CB6F3FD3A56F56D2A7F30D23171 Accuracy: -m0
Conclusion: CDDA 99%
Signature: 240E92AE77CF9268EF7ECF9FB5BD3861E3D2CE5F
FILE: 13 - Get Flash - Get Flash.flac
Size: 33362870 Hash: D4C73BAF77652011E0FA5D0EDD1A3BF2 Accuracy: -m0
Conclusion: CDDA 100%
Signature: AF583064B86365A2351257E9E88A2253CB17A9FE

2017 VA - Italo Disco (The Lost Legends Vol. 2)

Номер по каталогу: DMM CD 02 I
Продолжительность: 01:15:23
01 Reale Accademia - Beautiful Witch [04:54]
02 Galvanica - Nightlights In Japan [06:19]
03 Bryan Baker - Niagara Falls [06:17]
04 Keepers - Notty Girl [07:58]
05 M Like Moon - Don't Come Back [05:56]
06 Chantal - Ladies’ Night [05:20]
07 Bryan Ross - Nothing [06:03]
08 Laura Angel - Summer Time [04:40]
09 Kamchatka - Woman [05:55]
10 Marco - Atomic Girl [04:22]
11 Country And Town - Yo Yo [05:36]
12 Francie Davis - Don't Run Away [06:25]
13 Merry Go Round - My Reason For Life [05:38]

Лог создания рипа

Exact Audio Copy V1.1 from 23. June 2015
EAC extraction logfile from 31. March 2017, 12:57
Unknown Artist / Unknown Title
Used drive : ATAPI iHOS104 Adapter: 1 ID: 0
Read mode : Secure
Utilize accurate stream : Yes
Defeat audio cache : Yes
Make use of C2 pointers : No
Read offset correction : 696
Overread into Lead-In and Lead-Out : No
Fill up missing offset samples with silence : Yes
Delete leading and trailing silent blocks : No
Null samples used in CRC calculations : Yes
Used interface : Native Win32 interface for Win NT & 2000
Gap handling : Appended to previous track
Used output format : User Defined Encoder
Selected bitrate : 128 kBit/s
Quality : High
Add ID3 tag : No
Command line compressor : C:\Program Files (x86)\Exact Audio Copy\Flac\flac.exe
Additional command line options : -8 -V -T "ARTIST=%artist%" -T "TITLE=%title%" -T "ALBUM=%albumtitle%" -T "DATE=%year%" -T "TRACKNUMBER=%tracknr%" -T "GENRE=%genre%" -T "COMMENT=Ripped Using EAC (Secure Mode)" -T "BAND=%albuminterpret%" -T "ALBUMARTIST=%albuminterpret%" -T "COMPOSER=%composer%" %haslyrics%--tag-from-file=LYRICS="%lyricsfile%"%haslyrics% -T "DISCNUMBER=%cdnumber%" -T "TOTALDISCS=%totalcds%" -T "TOTALTRACKS=%numtracks%" %hascover%--picture="%coverfile%"%hascover% %source% -o %dest%
TOC of the extracted CD
Track | Start | Length | Start sector | End sector
---------------------------------------------------------
1 | 0:00.00 | 4:53.62 | 0 | 22036
2 | 4:53.62 | 6:19.04 | 22037 | 50465
3 | 11:12.66 | 6:16.44 | 50466 | 78709
4 | 17:29.35 | 7:58.30 | 78710 | 114589
5 | 25:27.65 | 5:55.40 | 114590 | 141254
6 | 31:23.30 | 5:19.56 | 141255 | 165235
7 | 36:43.11 | 6:03.34 | 165236 | 192494
8 | 42:46.45 | 4:40.29 | 192495 | 213523
9 | 47:26.74 | 5:55.30 | 213524 | 240178
10 | 53:22.29 | 4:21.59 | 240179 | 259812
11 | 57:44.13 | 5:36.18 | 259813 | 285030
12 | 63:20.31 | 6:25.35 | 285031 | 313940
13 | 69:45.66 | 5:37.54 | 313941 | 339269
Track 1
Filename E:\EAC Rips\2017 - Various - Italo Disco (The Lost Legends Vol. 2)\01 - Unknown Artist - Track01.wav
Pre-gap length 0:00:02.00
Peak level 83.5 %
Extraction speed 3.0 X
Track quality 99.9 %
Test CRC 675ADBF9
Copy CRC 675ADBF9
Track not present in AccurateRip database
Copy OK
Track 2
Filename E:\EAC Rips\2017 - Various - Italo Disco (The Lost Legends Vol. 2)\02 - Unknown Artist - Track02.wav
Pre-gap length 0:00:03.65
Peak level 78.5 %
Extraction speed 4.7 X
Track quality 100.0 %
Test CRC A9E90C56
Copy CRC A9E90C56
Track not present in AccurateRip database
Copy OK
Track 3
Filename E:\EAC Rips\2017 - Various - Italo Disco (The Lost Legends Vol. 2)\03 - Unknown Artist - Track03.wav
Pre-gap length 0:00:03.65
Peak level 91.0 %
Extraction speed 5.2 X
Track quality 100.0 %
Test CRC 3589B20E
Copy CRC 3589B20E
Track not present in AccurateRip database
Copy OK
Track 4
Filename E:\EAC Rips\2017 - Various - Italo Disco (The Lost Legends Vol. 2)\04 - Unknown Artist - Track04.wav
Pre-gap length 0:00:03.65
Peak level 81.6 %
Extraction speed 4.7 X
Track quality 99.9 %
Test CRC 4E1B876B
Copy CRC 4E1B876B
Track not present in AccurateRip database
Copy OK
Track 5
Filename E:\EAC Rips\2017 - Various - Italo Disco (The Lost Legends Vol. 2)\05 - Unknown Artist - Track05.wav
Pre-gap length 0:00:03.65
Peak level 89.0 %
Extraction speed 4.7 X
Track quality 99.9 %
Test CRC 70DE18E0
Copy CRC 70DE18E0
Track not present in AccurateRip database
Copy OK
Track 6
Filename E:\EAC Rips\2017 - Various - Italo Disco (The Lost Legends Vol. 2)\06 - Unknown Artist - Track06.wav
Pre-gap length 0:00:03.65
Peak level 85.7 %
Extraction speed 6.3 X
Track quality 100.0 %
Test CRC 35726D5A
Copy CRC 35726D5A
Track not present in AccurateRip database
Copy OK
Track 7
Filename E:\EAC Rips\2017 - Various - Italo Disco (The Lost Legends Vol. 2)\07 - Unknown Artist - Track07.wav
Pre-gap length 0:00:03.65
Peak level 95.7 %
Extraction speed 4.4 X
Track quality 99.9 %
Test CRC BF92A280
Copy CRC BF92A280
Track not present in AccurateRip database
Copy OK
Track 8
Filename E:\EAC Rips\2017 - Various - Italo Disco (The Lost Legends Vol. 2)\08 - Unknown Artist - Track08.wav
Pre-gap length 0:00:03.65
Peak level 88.9 %
Extraction speed 6.7 X
Track quality 100.0 %
Test CRC 8CBFAF36
Copy CRC 8CBFAF36
Track not present in AccurateRip database
Copy OK
Track 9
Filename E:\EAC Rips\2017 - Various - Italo Disco (The Lost Legends Vol. 2)\09 - Unknown Artist - Track09.wav
Pre-gap length 0:00:03.65
Peak level 81.9 %
Extraction speed 7.2 X
Track quality 100.0 %
Test CRC 4BA4D642
Copy CRC 4BA4D642
Track not present in AccurateRip database
Copy OK
Track 10
Filename E:\EAC Rips\2017 - Various - Italo Disco (The Lost Legends Vol. 2)\10 - Unknown Artist - Track10.wav
Pre-gap length 0:00:03.65
Peak level 87.3 %
Extraction speed 7.2 X
Track quality 100.0 %
Test CRC F7A6F88A
Copy CRC F7A6F88A
Track not present in AccurateRip database
Copy OK
Track 11
Filename E:\EAC Rips\2017 - Various - Italo Disco (The Lost Legends Vol. 2)\11 - Unknown Artist - Track11.wav
Pre-gap length 0:00:03.65
Peak level 81.7 %
Extraction speed 7.6 X
Track quality 100.0 %
Test CRC A3794F6E
Copy CRC A3794F6E
Track not present in AccurateRip database
Copy OK
Track 12
Filename E:\EAC Rips\2017 - Various - Italo Disco (The Lost Legends Vol. 2)\12 - Unknown Artist - Track12.wav
Pre-gap length 0:00:03.65
Peak level 80.0 %
Extraction speed 6.2 X
Track quality 99.9 %
Test CRC 68080F5C
Copy CRC 68080F5C
Track not present in AccurateRip database
Copy OK
Track 13
Filename E:\EAC Rips\2017 - Various - Italo Disco (The Lost Legends Vol. 2)\13 - Unknown Artist - Track13.wav
Pre-gap length 0:00:03.65
Peak level 86.8 %
Extraction speed 8.0 X
Track quality 100.0 %
Test CRC 86CD6BFC
Copy CRC 86CD6BFC
Track not present in AccurateRip database
Copy OK
None of the tracks are present in the AccurateRip database
No errors occurred
End of status report
---- CUETools DB Plugin V2.1.6
[CTDB TOCID: eIunAu9wMeedCAUMk3tzMTRZ_Bo-] disk not present in database
Submit result: eIunAu9wMeedCAUMk3tzMTRZ_Bo- has been uploaded
==== Log checksum F38139ECEEBBB20B688D4773C21B56908FBF234075FFBA37870F634323B3B6D9 ====

Содержание индексной карты (.CUE)

REM DISCID C211AB0D
REM COMMENT "ExactAudioCopy v1.1"
PERFORMER "Unknown Artist"
TITLE "Unknown Title"
FILE "01 - Unknown Artist - Track01.wav" WAVE
TRACK 01 AUDIO
TITLE "Track01"
PERFORMER "Unknown Artist"
INDEX 01 00:00:00
TRACK 02 AUDIO
TITLE "Track02"
PERFORMER "Unknown Artist"
INDEX 00 04:49:72
FILE "02 - Unknown Artist - Track02.wav" WAVE
INDEX 01 00:00:00
TRACK 03 AUDIO
TITLE "Track03"
PERFORMER "Unknown Artist"
INDEX 00 06:15:14
FILE "03 - Unknown Artist - Track03.wav" WAVE
INDEX 01 00:00:00
TRACK 04 AUDIO
TITLE "Track04"
PERFORMER "Unknown Artist"
INDEX 00 06:12:54
FILE "04 - Unknown Artist - Track04.wav" WAVE
INDEX 01 00:00:00
TRACK 05 AUDIO
TITLE "Track05"
PERFORMER "Unknown Artist"
INDEX 00 07:54:40
FILE "05 - Unknown Artist - Track05.wav" WAVE
INDEX 01 00:00:00
TRACK 06 AUDIO
TITLE "Track06"
PERFORMER "Unknown Artist"
INDEX 00 05:51:50
FILE "06 - Unknown Artist - Track06.wav" WAVE
INDEX 01 00:00:00
TRACK 07 AUDIO
TITLE "Track07"
PERFORMER "Unknown Artist"
INDEX 00 05:15:66
FILE "07 - Unknown Artist - Track07.wav" WAVE
INDEX 01 00:00:00
TRACK 08 AUDIO
TITLE "Track08"
PERFORMER "Unknown Artist"
INDEX 00 05:59:44
FILE "08 - Unknown Artist - Track08.wav" WAVE
INDEX 01 00:00:00
TRACK 09 AUDIO
TITLE "Track09"
PERFORMER "Unknown Artist"
INDEX 00 04:36:39
FILE "09 - Unknown Artist - Track09.wav" WAVE
INDEX 01 00:00:00
TRACK 10 AUDIO
TITLE "Track10"
PERFORMER "Unknown Artist"
INDEX 00 05:51:40
FILE "10 - Unknown Artist - Track10.wav" WAVE
INDEX 01 00:00:00
TRACK 11 AUDIO
TITLE "Track11"
PERFORMER "Unknown Artist"
INDEX 00 04:17:69
FILE "11 - Unknown Artist - Track11.wav" WAVE
INDEX 01 00:00:00
TRACK 12 AUDIO
TITLE "Track12"
PERFORMER "Unknown Artist"
INDEX 00 05:32:28
FILE "12 - Unknown Artist - Track12.wav" WAVE
INDEX 01 00:00:00
TRACK 13 AUDIO
TITLE "Track13"
PERFORMER "Unknown Artist"
INDEX 00 06:21:45
FILE "13 - Unknown Artist - Track13.wav" WAVE
INDEX 01 00:00:00

Лог проверки качества

-----------------------
DON'T MODIFY THIS FILE
-----------------------
PERFORMER: auCDtect Task Manager, ver. 1.6.0 RC1 build 1.6.0.1
Copyright (c) 2008-2010 y-soft. All rights reserved
http://y-soft.org
ANALYZER: auCDtect: CD records authenticity detector, version 0.8.2
Copyright (c) 2004 Oleg Berngardt. All rights reserved.
Copyright (c) 2004 Alexander Djourik. All rights reserved.
FILE: 01 - Reale Accademia - Beautiful Witch.flac
Size: 32004513 Hash: 3E488B5CF2E6FB822157E34B2AFF7199 Accuracy: -m0
Conclusion: CDDA 99%
Signature: CB61D15047DD65E946D7176F507A26F1E9D13F89
FILE: 02 - Galvanica - Nightlights In Japan.flac
Size: 41393612 Hash: 4FC7CB49F093BB756927DD249D12C998 Accuracy: -m0
Conclusion: CDDA 99%
Signature: 816D161587716676C806BB294E7C7E1540636A4E
FILE: 03 - Bryan Baker - Niagara Falls.flac
Size: 41100618 Hash: 0FB1FAAAB72DFE9E8E7437E93F669122 Accuracy: -m0
Conclusion: CDDA 100%
Signature: B06BC56BAD6FEE11C2B47A5496D3E6CCF60DA867
FILE: 04 - Keepers - Notty Girl.flac
Size: 51257528 Hash: E6B39A8777147A911AFF0040D008FE99 Accuracy: -m0
Conclusion: CDDA 100%
Signature: 2374F7467420314ECD1C2FA05F19EC51B9969679
FILE: 05 - M Like Moon - Don't Come Back.flac
Size: 38610822 Hash: 2D0A7FAA60A627F80152A62276DA1AA1 Accuracy: -m0
Conclusion: CDDA 99%
Signature: 5CF6DCFBA643256ED7F542401FA8004CDC7B3D25
FILE: 06 - Chantal - Ladies’ Night.flac
Size: 35172833 Hash: 47A8527610075457447F223D82F209A0 Accuracy: -m0
Conclusion: CDDA 100%
Signature: AA700A65D1E70DAE4AFB420532DFD084FD3644C7
FILE: 07 - Bryan Ross - Nothing.flac
Size: 35016572 Hash: F5103447CE5063FF5035CCA2D4F3CF5C Accuracy: -m0
Conclusion: CDDA 100%
Signature: D1780E8842BE3D11F8F29FC9A379A8C90F8E843B
FILE: 08 - Laura Angel - Summer Time.flac
Size: 30326897 Hash: D9EA704E6190B748B333B61F187E1129 Accuracy: -m0
Conclusion: CDDA 100%
Signature: 903D73D4F0CD0392528299C6ECF005484A7DAC7B
FILE: 09 - Kamchatka - Woman.flac
Size: 41180588 Hash: 00888C73F02A686DACE7F20E2989D741 Accuracy: -m0
Conclusion: CDDA 100%
Signature: 5AD32378C1BE9B7AEC6B0E0B2325096E99F97D5A
FILE: 10 - Marco - Atomic Girl.flac
Size: 29038529 Hash: B36BAA55492BF2158286D90DA62B8FFF Accuracy: -m0
Conclusion: CDDA 100%
Signature: DF54B9A4E560754B4190BEEDFA818BABC8EE0DED
FILE: 11 - Country And Town - Yo Yo.flac
Size: 36824528 Hash: BF5DEB5314AEA751F681E1F14589CEE0 Accuracy: -m0
Conclusion: CDDA 100%
Signature: F1B7606422D6545604EDC3207BB77011AFC519C0
FILE: 12 - Francie Davis - Don't Run Away.flac
Size: 44040859 Hash: 0E976AC8360D5B31F3DA448DE8B351CB Accuracy: -m0
Conclusion: CDDA 99%
Signature: 750AD9A78F5C2927897AE28763DDBD467358D2A2
FILE: 13 - Merry Go Round - My Reason For Life.flac
Size: 36769929 Hash: B68B8D574C331CBFF7CC160D4827F84B Accuracy: -m0
Conclusion: CDDA 100%
Signature: 373C9E3261A31D3294DC981AE709CB4D15B9CA30

2017 VA - Italo Disco (The Lost Legends Vol. 3)

[img=right]ссылка[/img]
Номер по каталогу: DMM CD 03 I
Продолжительность: 01:18:27
01 The Keepers - Lovetomatic [04:49]
02 Stephen Head - Switch On Fellini [07:33]
03 Kel-Air & Band Band - Tuareg [05:51]
04 Reale Accademia - Run Away In The Night [04:29]
05 Jambo Tropical - Fall In Love [05:32]
06 CNNT - Cosa Nostra No Thanks [06:16]
07 Byron Sha - Sha Sha Fu Fu [06:11]
08 Los Angeles - Videomania [03:46]
09 Christine - Dancing Hour [05:35]
10 Roaring Mosquitoes - Ah, Ah, Ah, Ah !!! [03:04]
11 Bryvan Stage - Wayout! [05:53]
12 Novecento - Someday [07:40]
13 Mario Real - Chance [08:08]
14 Avant Garde - Nino [03:40]

Лог создания рипа

Exact Audio Copy V1.1 from 23. June 2015
EAC extraction logfile from 31. March 2017, 13:32
Unknown Artist / Unknown Title
Used drive : ATAPI iHOS104 Adapter: 1 ID: 0
Read mode : Secure
Utilize accurate stream : Yes
Defeat audio cache : Yes
Make use of C2 pointers : No
Read offset correction : 696
Overread into Lead-In and Lead-Out : No
Fill up missing offset samples with silence : Yes
Delete leading and trailing silent blocks : No
Null samples used in CRC calculations : Yes
Used interface : Native Win32 interface for Win NT & 2000
Gap handling : Appended to previous track
Used output format : User Defined Encoder
Selected bitrate : 128 kBit/s
Quality : High
Add ID3 tag : No
Command line compressor : C:\Program Files (x86)\Exact Audio Copy\Flac\flac.exe
Additional command line options : -8 -V -T "ARTIST=%artist%" -T "TITLE=%title%" -T "ALBUM=%albumtitle%" -T "DATE=%year%" -T "TRACKNUMBER=%tracknr%" -T "GENRE=%genre%" -T "COMMENT=Ripped Using EAC (Secure Mode)" -T "BAND=%albuminterpret%" -T "ALBUMARTIST=%albuminterpret%" -T "COMPOSER=%composer%" %haslyrics%--tag-from-file=LYRICS="%lyricsfile%"%haslyrics% -T "DISCNUMBER=%cdnumber%" -T "TOTALDISCS=%totalcds%" -T "TOTALTRACKS=%numtracks%" %hascover%--picture="%coverfile%"%hascover% %source% -o %dest%
TOC of the extracted CD
Track | Start | Length | Start sector | End sector
---------------------------------------------------------
1 | 0:00.00 | 4:49.12 | 0 | 21686
2 | 4:49.12 | 7:33.32 | 21687 | 55693
3 | 12:22.44 | 5:50.63 | 55694 | 82006
4 | 18:13.32 | 4:28.74 | 82007 | 102180
5 | 22:42.31 | 5:32.17 | 102181 | 127097
6 | 28:14.48 | 6:15.58 | 127098 | 155280
7 | 34:30.31 | 6:10.42 | 155281 | 183072
8 | 40:40.73 | 3:46.22 | 183073 | 200044
9 | 44:27.20 | 5:35.30 | 200045 | 225199
10 | 50:02.50 | 3:03.44 | 225200 | 238968
11 | 53:06.19 | 5:53.11 | 238969 | 265454
12 | 58:59.30 | 7:40.21 | 265455 | 299975
13 | 66:39.51 | 8:07.42 | 299976 | 336542
14 | 74:47.18 | 3:39.48 | 336543 | 353015
Track 1
Filename E:\EAC Rips\2017 - Various - Italo Disco (The Lost Legends Vol. 3)\01 - Unknown Artist - Track01.wav
Pre-gap length 0:00:02.00
Peak level 98.0 %
Extraction speed 2.9 X
Track quality 99.9 %
Test CRC 816BC29F
Copy CRC 816BC29F
Track not present in AccurateRip database
Copy OK
Track 2
Filename E:\EAC Rips\2017 - Various - Italo Disco (The Lost Legends Vol. 3)\02 - Unknown Artist - Track02.wav
Pre-gap length 0:00:03.65
Peak level 72.2 %
Extraction speed 4.7 X
Track quality 100.0 %
Test CRC 080595D5
Copy CRC 080595D5
Track not present in AccurateRip database
Copy OK
Track 3
Filename E:\EAC Rips\2017 - Various - Italo Disco (The Lost Legends Vol. 3)\03 - Unknown Artist - Track03.wav
Pre-gap length 0:00:03.65
Peak level 83.9 %
Extraction speed 5.1 X
Track quality 100.0 %
Test CRC C9C23607
Copy CRC C9C23607
Track not present in AccurateRip database
Copy OK
Track 4
Filename E:\EAC Rips\2017 - Various - Italo Disco (The Lost Legends Vol. 3)\04 - Unknown Artist - Track04.wav
Pre-gap length 0:00:03.65
Peak level 91.2 %
Extraction speed 5.3 X
Track quality 100.0 %
Test CRC FDC176B7
Copy CRC FDC176B7
Track not present in AccurateRip database
Copy OK
Track 5
Filename E:\EAC Rips\2017 - Various - Italo Disco (The Lost Legends Vol. 3)\05 - Unknown Artist - Track05.wav
Pre-gap length 0:00:03.65
Peak level 79.0 %
Extraction speed 5.8 X
Track quality 100.0 %
Test CRC CD845F70
Copy CRC CD845F70
Track not present in AccurateRip database
Copy OK
Track 6
Filename E:\EAC Rips\2017 - Various - Italo Disco (The Lost Legends Vol. 3)\06 - Unknown Artist - Track06.wav
Pre-gap length 0:00:03.65
Peak level 85.0 %
Extraction speed 6.2 X
Track quality 100.0 %
Test CRC 8635677C
Copy CRC 8635677C
Track not present in AccurateRip database
Copy OK
Track 7
Filename E:\EAC Rips\2017 - Various - Italo Disco (The Lost Legends Vol. 3)\07 - Unknown Artist - Track07.wav
Pre-gap length 0:00:03.65
Peak level 75.9 %
Extraction speed 6.5 X
Track quality 100.0 %
Test CRC 1FF0CA18
Copy CRC 1FF0CA18
Track not present in AccurateRip database
Copy OK
Track 8
Filename E:\EAC Rips\2017 - Various - Italo Disco (The Lost Legends Vol. 3)\08 - Unknown Artist - Track08.wav
Pre-gap length 0:00:03.65
Peak level 75.4 %
Extraction speed 6.3 X
Track quality 100.0 %
Test CRC 109A8BC5
Copy CRC 109A8BC5
Track not present in AccurateRip database
Copy OK
Track 9
Filename E:\EAC Rips\2017 - Various - Italo Disco (The Lost Legends Vol. 3)\09 - Unknown Artist - Track09.wav
Pre-gap length 0:00:03.65
Peak level 67.1 %
Extraction speed 6.9 X
Track quality 100.0 %
Test CRC B730783F
Copy CRC B730783F
Track not present in AccurateRip database
Copy OK
Track 10
Filename E:\EAC Rips\2017 - Various - Italo Disco (The Lost Legends Vol. 3)\10 - Unknown Artist - Track10.wav
Pre-gap length 0:00:03.65
Peak level 82.5 %
Extraction speed 4.3 X
Track quality 99.9 %
Test CRC 87648D9B
Copy CRC 87648D9B
Track not present in AccurateRip database
Copy OK
Track 11
Filename E:\EAC Rips\2017 - Various - Italo Disco (The Lost Legends Vol. 3)\11 - Unknown Artist - Track11.wav
Pre-gap length 0:00:03.65
Peak level 91.3 %
Extraction speed 7.3 X
Track quality 100.0 %
Test CRC ADAF1EA9
Copy CRC ADAF1EA9
Track not present in AccurateRip database
Copy OK
Track 12
Filename E:\EAC Rips\2017 - Various - Italo Disco (The Lost Legends Vol. 3)\12 - Unknown Artist - Track12.wav
Pre-gap length 0:00:03.65
Peak level 76.1 %
Extraction speed 7.8 X
Track quality 100.0 %
Test CRC D308D360
Copy CRC D308D360
Track not present in AccurateRip database
Copy OK
Track 13
Filename E:\EAC Rips\2017 - Various - Italo Disco (The Lost Legends Vol. 3)\13 - Unknown Artist - Track13.wav
Pre-gap length 0:00:03.65
Peak level 92.7 %
Extraction speed 8.2 X
Track quality 100.0 %
Test CRC EE9631C1
Copy CRC EE9631C1
Track not present in AccurateRip database
Copy OK
Track 14
Filename E:\EAC Rips\2017 - Various - Italo Disco (The Lost Legends Vol. 3)\14 - Unknown Artist - Track14.wav
Pre-gap length 0:00:03.65
Peak level 82.1 %
Extraction speed 7.6 X
Track quality 100.0 %
Test CRC 7DC95D3C
Copy CRC 7DC95D3C
Track not present in AccurateRip database
Copy OK
None of the tracks are present in the AccurateRip database
No errors occurred
End of status report
---- CUETools DB Plugin V2.1.6
[CTDB TOCID: RIO16mPKc1J4jo5xNN5dlHrOu3E-] disk not present in database
Submit result: RIO16mPKc1J4jo5xNN5dlHrOu3E- has been uploaded
==== Log checksum 273F2E236B4E97D0ACF90D9B807D135999773ACF5019D513F7D34A283D70B25A ====

Содержание индексной карты (.CUE)

REM DISCID C412620E
REM COMMENT "ExactAudioCopy v1.1"
PERFORMER "Unknown Artist"
TITLE "Unknown Title"
FILE "01 - Unknown Artist - Track01.wav" WAVE
TRACK 01 AUDIO
TITLE "Track01"
PERFORMER "Unknown Artist"
INDEX 01 00:00:00
TRACK 02 AUDIO
TITLE "Track02"
PERFORMER "Unknown Artist"
INDEX 00 04:45:22
FILE "02 - Unknown Artist - Track02.wav" WAVE
INDEX 01 00:00:00
TRACK 03 AUDIO
TITLE "Track03"
PERFORMER "Unknown Artist"
INDEX 00 07:29:42
FILE "03 - Unknown Artist - Track03.wav" WAVE
INDEX 01 00:00:00
TRACK 04 AUDIO
TITLE "Track04"
PERFORMER "Unknown Artist"
INDEX 00 05:46:73
FILE "04 - Unknown Artist - Track04.wav" WAVE
INDEX 01 00:00:00
TRACK 05 AUDIO
TITLE "Track05"
PERFORMER "Unknown Artist"
INDEX 00 04:25:09
FILE "05 - Unknown Artist - Track05.wav" WAVE
INDEX 01 00:00:00
TRACK 06 AUDIO
TITLE "Track06"
PERFORMER "Unknown Artist"
INDEX 00 05:28:27
FILE "06 - Unknown Artist - Track06.wav" WAVE
INDEX 01 00:00:00
TRACK 07 AUDIO
TITLE "Track07"
PERFORMER "Unknown Artist"
INDEX 00 06:11:68
FILE "07 - Unknown Artist - Track07.wav" WAVE
INDEX 01 00:00:00
TRACK 08 AUDIO
TITLE "Track08"
PERFORMER "Unknown Artist"
INDEX 00 06:06:52
FILE "08 - Unknown Artist - Track08.wav" WAVE
INDEX 01 00:00:00
TRACK 09 AUDIO
TITLE "Track09"
PERFORMER "Unknown Artist"
INDEX 00 03:42:32
FILE "09 - Unknown Artist - Track09.wav" WAVE
INDEX 01 00:00:00
TRACK 10 AUDIO
TITLE "Track10"
PERFORMER "Unknown Artist"
INDEX 00 05:31:40
FILE "10 - Unknown Artist - Track10.wav" WAVE
INDEX 01 00:00:00
TRACK 11 AUDIO
TITLE "Track11"
PERFORMER "Unknown Artist"
INDEX 00 02:59:54
FILE "11 - Unknown Artist - Track11.wav" WAVE
INDEX 01 00:00:00
TRACK 12 AUDIO
TITLE "Track12"
PERFORMER "Unknown Artist"
INDEX 00 05:49:21
FILE "12 - Unknown Artist - Track12.wav" WAVE
INDEX 01 00:00:00
TRACK 13 AUDIO
TITLE "Track13"
PERFORMER "Unknown Artist"
INDEX 00 07:36:31
FILE "13 - Unknown Artist - Track13.wav" WAVE
INDEX 01 00:00:00
TRACK 14 AUDIO
TITLE "Track14"
PERFORMER "Unknown Artist"
INDEX 00 08:03:52
FILE "14 - Unknown Artist - Track14.wav" WAVE
INDEX 01 00:00:00

Лог проверки качества

-----------------------
DON'T MODIFY THIS FILE
-----------------------
PERFORMER: auCDtect Task Manager, ver. 1.6.0 RC1 build 1.6.0.1
Copyright (c) 2008-2010 y-soft. All rights reserved
http://y-soft.org
ANALYZER: auCDtect: CD records authenticity detector, version 0.8.2
Copyright (c) 2004 Oleg Berngardt. All rights reserved.
Copyright (c) 2004 Alexander Djourik. All rights reserved.
FILE: 01 - The Keepers - Lovetomatic.flac
Size: 30285286 Hash: E26ED4B5B455F54EEB9AE11BCCAF426D Accuracy: -m0
Conclusion: CDDA 100%
Signature: 2422A4A116184D8D7D23517F6E1689542A62E366
FILE: 02 - Stephen Head - Switch On Fellini.flac
Size: 46054661 Hash: A14CF731E9461243D5E7A3334976E130 Accuracy: -m0
Conclusion: CDDA 100%
Signature: D99480F2E2119FF6A46EE702C94315FF83CA8564
FILE: 03 - Kel-Air & Band Band - Tuareg.flac
Size: 35693251 Hash: 07E44678994490A6685D021CDB466353 Accuracy: -m0
Conclusion: CDDA 100%
Signature: 4E9B938EF1DA4BAF5526133B51F371B5F028503E
FILE: 04 - Reale Accademia - Run Away In The Night.flac
Size: 29057433 Hash: 6F46FC1DBCCC995FAC00C513F08B248E Accuracy: -m0
Conclusion: CDDA 100%
Signature: 756A8473772C0AD30F797EE87576F1F9CD0DA177
FILE: 05 - Jambo Tropical - Fall In Love.flac
Size: 40394190 Hash: 26F099AFA8DB482F7A8007E1750673EC Accuracy: -m0
Conclusion: CDDA 100%
Signature: 878EF508E7A535DE17CDEAE7DCB713E257638E1D
FILE: 06 - CNNT - Cosa Nostra No Thanks.flac
Size: 42280656 Hash: 972027B77C981AE49B9DA27FF7421AC6 Accuracy: -m0
Conclusion: CDDA 99%
Signature: B348F789FD582C8D64D83115DA01DF194EF4031E
FILE: 07 - Byron Sha - Sha Sha Fu Fu.flac
Size: 39484214 Hash: A118BC85672B1F572C39C6A61DF2D460 Accuracy: -m0
Conclusion: CDDA 100%
Signature: 67D9D413F6FAB3B5718561F3F07302C583EBE945
FILE: 08 - Los Angeles - Videomania.flac
Size: 24516071 Hash: 4BFAC59356D1902563785F2B49BD5437 Accuracy: -m0
Conclusion: CDDA 100%
Signature: C75ED4707F07862048BA2470A09B79B0A8C2F715
FILE: 09 - Christine - Dancing Hour.flac
Size: 38706021 Hash: 987D47C55DCF9647CFBB5B2AB01A7C3E Accuracy: -m0
Conclusion: CDDA 100%
Signature: 761739EFB3385D30C8295E71ECB4399C796D631A
FILE: 10 - Roaring Mosquitoes - Ah, Ah, Ah, Ah !!!.flac
Size: 19590547 Hash: 8C78BCB2684722D472AC74EAC88F14C2 Accuracy: -m0
Conclusion: CDDA 99%
Signature: B0515B5F20710549E43E9A6A4B9AAB791CFEA8B2
FILE: 11 - Bryvan Stage - Wayout!.flac
Size: 32921736 Hash: B80626B9080CF168D531B36086926A25 Accuracy: -m0
Conclusion: CDDA 100%
Signature: 4D1A175661FCFC77FFC77761360B377D626C635E
FILE: 12 - Novecento - Someday.flac
Size: 46879654 Hash: BF1CCE320FCA08CB74E1F72A4D9E8827 Accuracy: -m0
Conclusion: CDDA 100%
Signature: EA49FE92F6CD532108413790570F00E0616479E4
FILE: 13 - Mario Real - Chance.flac
Size: 51458456 Hash: 30C4A8C5D39A84CA2BB623935C60C3AE Accuracy: -m0
Conclusion: CDDA 100%
Signature: 4E3509890573DF6B44DFCE71BC2AB71F107673AE
FILE: 14 - Avant Garde - Nino.flac
Size: 26188844 Hash: 0C8BB7C01AA37EADF4C03078ECAC5D44 Accuracy: -m0
Conclusion: CDDA 100%
Signature: 9AE73C4820A3F91F112EDB694AA604188FEAAD29

2017 VA - Italo Disco (The Lost Legends Vol. 4)

Номер по каталогу: DMM CD 04 I
Продолжительность: 01:18:07
01 Ventura - Another Time [05:14]
02 Love Kills - I Want To Become [06:22]
03 G & M - Don't Let You Down [06:17]
04 Christal - Fire Lady [06:36]
05 Riccardo Cioni - Ole'-Oh [06:18]
06 Canton - Please Don't Stay [06:20]
07 Glasses - Crystals [06:10]
08 De-De-Mo - 'Cause I Need You 'Cause I Love You [06:46]
09 Glen White - TV Lover [05:44]
10 Akire - Last Train [05:43]
11 Banana Band - Let Me Go [06:01]
12 Bronze Face - Commando [06:22]
13 Camomilla - Come On Everybody [04:14]

Лог создания рипа

Exact Audio Copy V1.1 from 23. June 2015
EAC extraction logfile from 31. March 2017, 14:31
Unknown Artist / Unknown Title
Used drive : ATAPI iHOS104 Adapter: 1 ID: 0
Read mode : Secure
Utilize accurate stream : Yes
Defeat audio cache : Yes
Make use of C2 pointers : No
Read offset correction : 696
Overread into Lead-In and Lead-Out : No
Fill up missing offset samples with silence : Yes
Delete leading and trailing silent blocks : No
Null samples used in CRC calculations : Yes
Used interface : Native Win32 interface for Win NT & 2000
Gap handling : Appended to previous track
Used output format : User Defined Encoder
Selected bitrate : 128 kBit/s
Quality : High
Add ID3 tag : No
Command line compressor : C:\Program Files (x86)\Exact Audio Copy\Flac\flac.exe
Additional command line options : -8 -V -T "ARTIST=%artist%" -T "TITLE=%title%" -T "ALBUM=%albumtitle%" -T "DATE=%year%" -T "TRACKNUMBER=%tracknr%" -T "GENRE=%genre%" -T "COMMENT=Ripped Using EAC (Secure Mode)" -T "BAND=%albuminterpret%" -T "ALBUMARTIST=%albuminterpret%" -T "COMPOSER=%composer%" %haslyrics%--tag-from-file=LYRICS="%lyricsfile%"%haslyrics% -T "DISCNUMBER=%cdnumber%" -T "TOTALDISCS=%totalcds%" -T "TOTALTRACKS=%numtracks%" %hascover%--picture="%coverfile%"%hascover% %source% -o %dest%
TOC of the extracted CD
Track | Start | Length | Start sector | End sector
---------------------------------------------------------
1 | 0:00.00 | 5:13.43 | 0 | 23517
2 | 5:13.43 | 6:21.58 | 23518 | 52150
3 | 11:35.26 | 6:17.27 | 52151 | 80452
4 | 17:52.53 | 6:36.18 | 80453 | 110170
5 | 24:28.71 | 6:18.33 | 110171 | 138553
6 | 30:47.29 | 6:20.19 | 138554 | 167072
7 | 37:07.48 | 6:10.28 | 167073 | 194850
8 | 43:18.01 | 6:45.48 | 194851 | 225273
9 | 50:03.49 | 5:43.71 | 225274 | 251069
10 | 55:47.45 | 5:43.06 | 251070 | 276800
11 | 61:30.51 | 6:01.16 | 276801 | 303891
12 | 67:31.67 | 6:21.39 | 303892 | 332505
13 | 73:53.31 | 4:13.45 | 332506 | 351525
Track 1
Filename E:\EAC Rips\2017 - Various - Italo Disco (The Lost Legends Vol. 4)\01 - Unknown Artist - Track01.wav
Pre-gap length 0:00:02.00
Peak level 77.9 %
Extraction speed 2.1 X
Track quality 100.0 %
Test CRC E1E7555E
Copy CRC E1E7555E
Track not present in AccurateRip database
Copy OK
Track 2
Filename E:\EAC Rips\2017 - Various - Italo Disco (The Lost Legends Vol. 4)\02 - Unknown Artist - Track02.wav
Pre-gap length 0:00:03.65
Peak level 76.9 %
Extraction speed 2.1 X
Track quality 99.9 %
Test CRC E1784AC5
Copy CRC E1784AC5
Track not present in AccurateRip database
Copy OK
Track 3
Filename E:\EAC Rips\2017 - Various - Italo Disco (The Lost Legends Vol. 4)\03 - Unknown Artist - Track03.wav
Pre-gap length 0:00:03.65
Peak level 84.2 %
Extraction speed 2.7 X
Track quality 100.0 %
Test CRC EF98D8AA
Copy CRC EF98D8AA
Track not present in AccurateRip database
Copy OK
Track 4
Filename E:\EAC Rips\2017 - Various - Italo Disco (The Lost Legends Vol. 4)\04 - Unknown Artist - Track04.wav
Pre-gap length 0:00:03.65
Peak level 94.4 %
Extraction speed 3.0 X
Track quality 100.0 %
Test CRC B496FCF9
Copy CRC B496FCF9
Track not present in AccurateRip database
Copy OK
Track 5
Filename E:\EAC Rips\2017 - Various - Italo Disco (The Lost Legends Vol. 4)\05 - Unknown Artist - Track05.wav
Pre-gap length 0:00:03.65
Peak level 78.2 %
Extraction speed 3.2 X
Track quality 100.0 %
Test CRC FB7735C8
Copy CRC FB7735C8
Track not present in AccurateRip database
Copy OK
Track 6
Filename E:\EAC Rips\2017 - Various - Italo Disco (The Lost Legends Vol. 4)\06 - Unknown Artist - Track06.wav
Pre-gap length 0:00:03.65
Peak level 77.9 %
Extraction speed 3.4 X
Track quality 100.0 %
Test CRC 6239B910
Copy CRC 6239B910
Track not present in AccurateRip database
Copy OK
Track 7
Filename E:\EAC Rips\2017 - Various - Italo Disco (The Lost Legends Vol. 4)\07 - Unknown Artist - Track07.wav
Pre-gap length 0:00:03.65
Peak level 86.7 %
Extraction speed 3.6 X
Track quality 100.0 %
Test CRC 62B2DEB8
Copy CRC 62B2DEB8
Track not present in AccurateRip database
Copy OK
Track 8
Filename E:\EAC Rips\2017 - Various - Italo Disco (The Lost Legends Vol. 4)\08 - Unknown Artist - Track08.wav
Pre-gap length 0:00:03.65
Peak level 93.3 %
Extraction speed 3.8 X
Track quality 100.0 %
Test CRC 53E3C1F7
Copy CRC 53E3C1F7
Track not present in AccurateRip database
Copy OK
Track 9
Filename E:\EAC Rips\2017 - Various - Italo Disco (The Lost Legends Vol. 4)\09 - Unknown Artist - Track09.wav
Pre-gap length 0:00:03.65
Peak level 90.8 %
Extraction speed 3.2 X
Track quality 99.9 %
Test CRC 24287B84
Copy CRC 24287B84
Track not present in AccurateRip database
Copy OK
Track 10
Filename E:\EAC Rips\2017 - Various - Italo Disco (The Lost Legends Vol. 4)\10 - Unknown Artist - Track10.wav
Pre-gap length 0:00:03.65
Peak level 88.2 %
Extraction speed 4.1 X
Track quality 100.0 %
Test CRC E0184AEA
Copy CRC E0184AEA
Track not present in AccurateRip database
Copy OK
Track 11
Filename E:\EAC Rips\2017 - Various - Italo Disco (The Lost Legends Vol. 4)\11 - Unknown Artist - Track11.wav
Pre-gap length 0:00:03.65
Peak level 78.9 %
Extraction speed 3.5 X
Track quality 99.9 %
Test CRC 5CB4ACC7
Copy CRC 5CB4ACC7
Track not present in AccurateRip database
Copy OK
Track 12
Filename E:\EAC Rips\2017 - Various - Italo Disco (The Lost Legends Vol. 4)\12 - Unknown Artist - Track12.wav
Pre-gap length 0:00:03.65
Peak level 84.2 %
Extraction speed 4.4 X
Track quality 100.0 %
Test CRC BFD0BDA3
Copy CRC BFD0BDA3
Track not present in AccurateRip database
Copy OK
Track 13
Filename E:\EAC Rips\2017 - Various - Italo Disco (The Lost Legends Vol. 4)\13 - Unknown Artist - Track13.wav
Pre-gap length 0:00:03.65
Peak level 69.1 %
Extraction speed 4.3 X
Track quality 100.0 %
Test CRC 8543AF6F
Copy CRC 8543AF6F
Track not present in AccurateRip database
Copy OK
None of the tracks are present in the AccurateRip database
No errors occurred
End of status report
---- CUETools DB Plugin V2.1.6
[CTDB TOCID: yWgdEclCdcs9A.iYnZ6eioluI9Y-] disk not present in database
Submit result: yWgdEclCdcs9A.iYnZ6eioluI9Y- has been uploaded
==== Log checksum AF133C845A17D53A5853AF489F372C59731695943617DABE34606C1033D7438A ====

Содержание индексной карты (.CUE)

REM DISCID B1124F0D
REM COMMENT "ExactAudioCopy v1.1"
PERFORMER "Unknown Artist"
TITLE "Unknown Title"
FILE "01 - Unknown Artist - Track01.wav" WAVE
TRACK 01 AUDIO
TITLE "Track01"
PERFORMER "Unknown Artist"
INDEX 01 00:00:00
TRACK 02 AUDIO
TITLE "Track02"
PERFORMER "Unknown Artist"
INDEX 00 05:09:53
FILE "02 - Unknown Artist - Track02.wav" WAVE
INDEX 01 00:00:00
TRACK 03 AUDIO
TITLE "Track03"
PERFORMER "Unknown Artist"
INDEX 00 06:17:68
FILE "03 - Unknown Artist - Track03.wav" WAVE
INDEX 01 00:00:00
TRACK 04 AUDIO
TITLE "Track04"
PERFORMER "Unknown Artist"
INDEX 00 06:13:37
FILE "04 - Unknown Artist - Track04.wav" WAVE
INDEX 01 00:00:00
TRACK 05 AUDIO
TITLE "Track05"
PERFORMER "Unknown Artist"
INDEX 00 06:32:28
FILE "05 - Unknown Artist - Track05.wav" WAVE
INDEX 01 00:00:00
TRACK 06 AUDIO
TITLE "Track06"
PERFORMER "Unknown Artist"
INDEX 00 06:14:43
FILE "06 - Unknown Artist - Track06.wav" WAVE
INDEX 01 00:00:00
TRACK 07 AUDIO
TITLE "Track07"
PERFORMER "Unknown Artist"
INDEX 00 06:16:29
FILE "07 - Unknown Artist - Track07.wav" WAVE
INDEX 01 00:00:00
TRACK 08 AUDIO
TITLE "Track08"
PERFORMER "Unknown Artist"
INDEX 00 06:06:38
FILE "08 - Unknown Artist - Track08.wav" WAVE
INDEX 01 00:00:00
TRACK 09 AUDIO
TITLE "Track09"
PERFORMER "Unknown Artist"
INDEX 00 06:41:58
FILE "09 - Unknown Artist - Track09.wav" WAVE
INDEX 01 00:00:00
TRACK 10 AUDIO
TITLE "Track10"
PERFORMER "Unknown Artist"
INDEX 00 05:40:06
FILE "10 - Unknown Artist - Track10.wav" WAVE
INDEX 01 00:00:00
TRACK 11 AUDIO
TITLE "Track11"
PERFORMER "Unknown Artist"
INDEX 00 05:39:16
FILE "11 - Unknown Artist - Track11.wav" WAVE
INDEX 01 00:00:00
TRACK 12 AUDIO
TITLE "Track12"
PERFORMER "Unknown Artist"
INDEX 00 05:57:26
FILE "12 - Unknown Artist - Track12.wav" WAVE
INDEX 01 00:00:00
TRACK 13 AUDIO
TITLE "Track13"
PERFORMER "Unknown Artist"
INDEX 00 06:17:49
FILE "13 - Unknown Artist - Track13.wav" WAVE
INDEX 01 00:00:00

Спектры трек 08

Лог проверки качества

-----------------------
DON'T MODIFY THIS FILE
-----------------------
PERFORMER: auCDtect Task Manager, ver. 1.6.0 RC1 build 1.6.0.1
Copyright (c) 2008-2010 y-soft. All rights reserved
http://y-soft.org
ANALYZER: auCDtect: CD records authenticity detector, version 0.8.2
Copyright (c) 2004 Oleg Berngardt. All rights reserved.
Copyright (c) 2004 Alexander Djourik. All rights reserved.
FILE: 01 - Ventura - Another Time.flac
Size: 33793144 Hash: B0D494CC91F25C09AABC8EAA6CB7E5F4 Accuracy: -m0
Conclusion: CDDA 100%
Signature: 6474A8B0DC66EC140D08A13E13A1B433CC4EBDB3
FILE: 02 - Love Kills - I Want To Become.flac
Size: 44822673 Hash: CF5F17B1CAA0F3950CB47B2F23F04609 Accuracy: -m0
Conclusion: CDDA 100%
Signature: 85ECACFED004A5201F558855256897C85830F280
FILE: 03 - G & M - Don't Let You Down.flac
Size: 44515676 Hash: 413448C1BABADF374AA3E7EB35C4B927 Accuracy: -m0
Conclusion: CDDA 100%
Signature: BFBA373E321DEA806286F5E70F5893C8C0553686
FILE: 04 - Christal - Fire Lady.flac
Size: 41765952 Hash: 85B315A5475865CBA2CD78FB8EBAA707 Accuracy: -m0
Conclusion: CDDA 100%
Signature: 60116EBC24C79108984344497FFE47114143AFCB
FILE: 05 - Riccardo Cioni - Ole'-Oh.flac
Size: 42375755 Hash: 117CE8993DBFC54915783E7B96454882 Accuracy: -m0
Conclusion: CDDA 100%
Signature: 5FB369ABC4BF8DF3A50FA356B2EFEF314B7C988A
FILE: 06 - Canton - Please Don't Stay.flac
Size: 42588515 Hash: BA2FF6D2D4F8900502398ED38AEF3EFD Accuracy: -m0
Conclusion: CDDA 100%
Signature: 350319CAF3D4D270B6AB1ADB081A2DDF643893A8
FILE: 07 - Glasses - Crystals.flac
Size: 39331565 Hash: 1A014F8313EDD02ED092C5D8A649FF05 Accuracy: -m0
Conclusion: CDDA 100%
Signature: 5FF7A3405A1294E099C68B09F258A0885C4C4808
FILE: 08 - De-De-Mo - 'Cause I Need You 'Cause I Love You.flac
Size: 42609560 Hash: A692232C8751FB7A4A105B42BBE45B94 Accuracy: -m0
Conclusion: MPEG 95%
Signature: E5FE875D88C10D680BF3F6B478C6D23C730AB51A
FILE: 09 - Glen White - TV Lover.flac
Size: 41539799 Hash: 95C592FDA5C1DB159C92402A00B1F98D Accuracy: -m0
Conclusion: CDDA 100%
Signature: 2BC002934B3D94C751C9AC902251AD1562D0B49B
FILE: 10 - Akirè - Last Train.flac
Size: 33098280 Hash: EA30ED4D74E6E3259072DA60E56ECC71 Accuracy: -m0
Conclusion: CDDA 100%
Signature: 0E32389933F12DE12A136E0F2A3F6F08418DCA39
FILE: 11 - Banana Band - Let Me Go.flac
Size: 39173642 Hash: D478103641093E88139CB225422AA03A Accuracy: -m0
Conclusion: CDDA 100%
Signature: 1142402164D9CA0AD743FD8D3F859084C076C251
FILE: 12 - Bronze Face - Commando.flac
Size: 42238072 Hash: 513040A243D2413F33B1619351551B98 Accuracy: -m0
Conclusion: CDDA 100%
Signature: B88C5DA48CDFF8EB74713F80D3DA4E836F2D09AB
FILE: 13 - Camomilla - Come On Everybody.flac
Size: 25269021 Hash: 74347A04C43DE758CE83A340B23A14D4 Accuracy: -m0
Conclusion: CDDA 100%
Signature: 80B5E87E67660896CA126E9B1A098303632AF41F

2017 VA - Italo Disco (The Lost Legends Vol. 5)

Номер по каталогу: DMM CD 05 I
Продолжительность: 01:18:38
01 Mod-it - Physical Fascination [05:20]
02 Paul Boy - Lucky Guy [05:18]
03 Lettieri - Melody [06:06]
04 Joe Car - Dancing Dode [06:21]
05 Marina - Time For Us [05:44]
06 Phil Sun - Dancing On The Beach [05:41]
07 Big Ben Tribe - Tarzan Loves The Summer Nights [07:12]
08 Ryan Dalmini - She's My Love [06:21]
09 Manuel Kerry - Change Change [07:00]
10 Steve Barrow - Look Around Me [05:19]
11 Ago - Miracles [07:03]
12 Mono Band - Mr. Crusoe [06:05]
13 Rich David - California O.K. [05:08]

Лог создания рипа

Exact Audio Copy V1.1 from 23. June 2015
EAC extraction logfile from 31. March 2017, 15:41
Unknown Artist / Unknown Title
Used drive : ATAPI iHOS104 Adapter: 1 ID: 0
Read mode : Secure
Utilize accurate stream : Yes
Defeat audio cache : Yes
Make use of C2 pointers : No
Read offset correction : 696
Overread into Lead-In and Lead-Out : No
Fill up missing offset samples with silence : Yes
Delete leading and trailing silent blocks : No
Null samples used in CRC calculations : Yes
Used interface : Native Win32 interface for Win NT & 2000
Gap handling : Appended to previous track
Used output format : User Defined Encoder
Selected bitrate : 128 kBit/s
Quality : High
Add ID3 tag : No
Command line compressor : C:\Program Files (x86)\Exact Audio Copy\Flac\flac.exe
Additional command line options : -8 -V -T "ARTIST=%artist%" -T "TITLE=%title%" -T "ALBUM=%albumtitle%" -T "DATE=%year%" -T "TRACKNUMBER=%tracknr%" -T "GENRE=%genre%" -T "COMMENT=Ripped Using EAC (Secure Mode)" -T "BAND=%albuminterpret%" -T "ALBUMARTIST=%albuminterpret%" -T "COMPOSER=%composer%" %haslyrics%--tag-from-file=LYRICS="%lyricsfile%"%haslyrics% -T "DISCNUMBER=%cdnumber%" -T "TOTALDISCS=%totalcds%" -T "TOTALTRACKS=%numtracks%" %hascover%--picture="%coverfile%"%hascover% %source% -o %dest%
TOC of the extracted CD
Track | Start | Length | Start sector | End sector
---------------------------------------------------------
1 | 0:00.00 | 5:20.11 | 0 | 24010
2 | 5:20.11 | 5:17.74 | 24011 | 47859
3 | 10:38.10 | 6:06.15 | 47860 | 75324
4 | 16:44.25 | 6:20.40 | 75325 | 103864
5 | 23:04.65 | 5:44.22 | 103865 | 129686
6 | 28:49.12 | 5:41.19 | 129687 | 155280
7 | 34:30.31 | 7:11.58 | 155281 | 187663
8 | 41:42.14 | 6:20.66 | 187664 | 216229
9 | 48:03.05 | 6:59.46 | 216230 | 247700
10 | 55:02.51 | 5:18.61 | 247701 | 271611
11 | 60:21.37 | 7:02.57 | 271612 | 303318
12 | 67:24.19 | 6:04.65 | 303319 | 330683
13 | 73:29.09 | 5:08.36 | 330684 | 353819
Track 1
Filename E:\EAC Rips\2017 - Various - Italo Disco (The Lost Legends Vol. 5)\01 - Unknown Artist - Track01.wav
Pre-gap length 0:00:02.00
Peak level 71.6 %
Extraction speed 2.1 X
Track quality 100.0 %
Test CRC 798CAD57
Copy CRC 798CAD57
Track not present in AccurateRip database
Copy OK
Track 2
Filename E:\EAC Rips\2017 - Various - Italo Disco (The Lost Legends Vol. 5)\02 - Unknown Artist - Track02.wav
Pre-gap length 0:00:03.65
Peak level 90.6 %
Extraction speed 2.4 X
Track quality 100.0 %
Test CRC 862BB223
Copy CRC 862BB223
Track not present in AccurateRip database
Copy OK
Track 3
Filename E:\EAC Rips\2017 - Various - Italo Disco (The Lost Legends Vol. 5)\03 - Unknown Artist - Track03.wav
Pre-gap length 0:00:03.65
Peak level 85.2 %
Extraction speed 2.3 X
Track quality 99.9 %
Test CRC BC715D4F
Copy CRC BC715D4F
Track not present in AccurateRip database
Copy OK
Track 4
Filename E:\EAC Rips\2017 - Various - Italo Disco (The Lost Legends Vol. 5)\04 - Unknown Artist - Track04.wav
Pre-gap length 0:00:03.65
Peak level 91.2 %
Extraction speed 3.0 X
Track quality 100.0 %
Test CRC 67584DB5
Copy CRC 67584DB5
Track not present in AccurateRip database
Copy OK
Track 5
Filename E:\EAC Rips\2017 - Various - Italo Disco (The Lost Legends Vol. 5)\05 - Unknown Artist - Track05.wav
Pre-gap length 0:00:03.65
Peak level 90.1 %
Extraction speed 2.6 X
Track quality 99.9 %
Test CRC F30607E1
Copy CRC F30607E1
Track not present in AccurateRip database
Copy OK
Track 6
Filename E:\EAC Rips\2017 - Various - Italo Disco (The Lost Legends Vol. 5)\06 - Unknown Artist - Track06.wav
Pre-gap length 0:00:03.65
Peak level 85.4 %
Extraction speed 2.7 X
Track quality 99.9 %
Test CRC 27344CB3
Copy CRC 27344CB3
Track not present in AccurateRip database
Copy OK
Track 7
Filename E:\EAC Rips\2017 - Various - Italo Disco (The Lost Legends Vol. 5)\07 - Unknown Artist - Track07.wav
Pre-gap length 0:00:03.65
Peak level 68.4 %
Extraction speed 3.6 X
Track quality 100.0 %
Test CRC 9C42B031
Copy CRC 9C42B031
Track not present in AccurateRip database
Copy OK
Track 8
Filename E:\EAC Rips\2017 - Various - Italo Disco (The Lost Legends Vol. 5)\08 - Unknown Artist - Track08.wav
Pre-gap length 0:00:03.65
Peak level 90.8 %
Extraction speed 3.8 X
Track quality 100.0 %
Test CRC 2F12E7C6
Copy CRC 2F12E7C6
Track not present in AccurateRip database
Copy OK
Track 9
Filename E:\EAC Rips\2017 - Various - Italo Disco (The Lost Legends Vol. 5)\09 - Unknown Artist - Track09.wav
Pre-gap length 0:00:03.65
Peak level 100.0 %
Extraction speed 3.4 X
Track quality 99.9 %
Test CRC 16612FB7
Copy CRC 16612FB7
Track not present in AccurateRip database
Copy OK
Track 10
Filename E:\EAC Rips\2017 - Various - Italo Disco (The Lost Legends Vol. 5)\10 - Unknown Artist - Track10.wav
Pre-gap length 0:00:03.65
Peak level 84.1 %
Extraction speed 4.1 X
Track quality 100.0 %
Test CRC C983B267
Copy CRC C983B267
Track not present in AccurateRip database
Copy OK
Track 11
Filename E:\EAC Rips\2017 - Various - Italo Disco (The Lost Legends Vol. 5)\11 - Unknown Artist - Track11.wav
Pre-gap length 0:00:03.65
Peak level 80.3 %
Extraction speed 4.3 X
Track quality 100.0 %
Test CRC 0EC96BC7
Copy CRC 0EC96BC7
Track not present in AccurateRip database
Copy OK
Track 12
Filename E:\EAC Rips\2017 - Various - Italo Disco (The Lost Legends Vol. 5)\12 - Unknown Artist - Track12.wav
Pre-gap length 0:00:03.65
Peak level 82.9 %
Extraction speed 3.7 X
Track quality 99.9 %
Test CRC 37C3BEAE
Copy CRC 37C3BEAE
Track not present in AccurateRip database
Copy OK
Track 13
Filename E:\EAC Rips\2017 - Various - Italo Disco (The Lost Legends Vol. 5)\13 - Unknown Artist - Track13.wav
Pre-gap length 0:00:03.65
Peak level 89.9 %
Extraction speed 4.4 X
Track quality 100.0 %
Test CRC 465F0AE4
Copy CRC 465F0AE4
Track not present in AccurateRip database
Copy OK
None of the tracks are present in the AccurateRip database
No errors occurred
End of status report
---- CUETools DB Plugin V2.1.6
[CTDB TOCID: apa5Ltm0wfkX55BkvRPhezcU4G0-] disk not present in database
Submit result: apa5Ltm0wfkX55BkvRPhezcU4G0- has been uploaded
==== Log checksum 88B87768EA577FD8C246E688E05B721D6F30E192FD32114EA6D34A6CE4D49FC3 ====

Содержание индексной карты (.CUE)

REM DISCID 95126D0D
REM COMMENT "ExactAudioCopy v1.1"
PERFORMER "Unknown Artist"
TITLE "Unknown Title"
FILE "01 - Unknown Artist - Track01.wav" WAVE
TRACK 01 AUDIO
TITLE "Track01"
PERFORMER "Unknown Artist"
INDEX 01 00:00:00
TRACK 02 AUDIO
TITLE "Track02"
PERFORMER "Unknown Artist"
INDEX 00 05:16:21
FILE "02 - Unknown Artist - Track02.wav" WAVE
INDEX 01 00:00:00
TRACK 03 AUDIO
TITLE "Track03"
PERFORMER "Unknown Artist"
INDEX 00 05:14:09
FILE "03 - Unknown Artist - Track03.wav" WAVE
INDEX 01 00:00:00
TRACK 04 AUDIO
TITLE "Track04"
PERFORMER "Unknown Artist"
INDEX 00 06:02:25
FILE "04 - Unknown Artist - Track04.wav" WAVE
INDEX 01 00:00:00
TRACK 05 AUDIO
TITLE "Track05"
PERFORMER "Unknown Artist"
INDEX 00 06:16:50
FILE "05 - Unknown Artist - Track05.wav" WAVE
INDEX 01 00:00:00
TRACK 06 AUDIO
TITLE "Track06"
PERFORMER "Unknown Artist"
INDEX 00 05:40:32
FILE "06 - Unknown Artist - Track06.wav" WAVE
INDEX 01 00:00:00
TRACK 07 AUDIO
TITLE "Track07"
PERFORMER "Unknown Artist"
INDEX 00 05:37:29
FILE "07 - Unknown Artist - Track07.wav" WAVE
INDEX 01 00:00:00
TRACK 08 AUDIO
TITLE "Track08"
PERFORMER "Unknown Artist"
INDEX 00 07:07:68
FILE "08 - Unknown Artist - Track08.wav" WAVE
INDEX 01 00:00:00
TRACK 09 AUDIO
TITLE "Track09"
PERFORMER "Unknown Artist"
INDEX 00 06:17:01
FILE "09 - Unknown Artist - Track09.wav" WAVE
INDEX 01 00:00:00
TRACK 10 AUDIO
TITLE "Track10"
PERFORMER "Unknown Artist"
INDEX 00 06:55:56
FILE "10 - Unknown Artist - Track10.wav" WAVE
INDEX 01 00:00:00
TRACK 11 AUDIO
TITLE "Track11"
PERFORMER "Unknown Artist"
INDEX 00 05:14:71
FILE "11 - Unknown Artist - Track11.wav" WAVE
INDEX 01 00:00:00
TRACK 12 AUDIO
TITLE "Track12"
PERFORMER "Unknown Artist"
INDEX 00 06:58:67
FILE "12 - Unknown Artist - Track12.wav" WAVE
INDEX 01 00:00:00
TRACK 13 AUDIO
TITLE "Track13"
PERFORMER "Unknown Artist"
INDEX 00 06:01:00
FILE "13 - Unknown Artist - Track13.wav" WAVE
INDEX 01 00:00:00

Лог проверки качества

-----------------------
DON'T MODIFY THIS FILE
-----------------------
PERFORMER: auCDtect Task Manager, ver. 1.6.0 RC1 build 1.6.0.1
Copyright (c) 2008-2010 y-soft. All rights reserved
http://y-soft.org
ANALYZER: auCDtect: CD records authenticity detector, version 0.8.2
Copyright (c) 2004 Oleg Berngardt. All rights reserved.
Copyright (c) 2004 Alexander Djourik. All rights reserved.
FILE: 01 - Mod-it - Physical Fascination.flac
Size: 36481788 Hash: 2215482EE81D5A167682AEA944D8B345 Accuracy: -m0
Conclusion: CDDA 100%
Signature: 8DB505F85C2FAB4C1C00E764B568D2E5161A6D41
FILE: 02 - Paul Boy - Lucky Guy.flac
Size: 38533326 Hash: A8D8CAEDEC9C41410827A5E4F72DFDC5 Accuracy: -m0
Conclusion: CDDA 99%
Signature: 893F0B726D2061AD1107B35EADB04F820C6B719A
FILE: 03 - Lettieri - Melody.flac
Size: 40874268 Hash: FA6EFFFA49C10D2E954D8D9FE445CC4B Accuracy: -m0
Conclusion: CDDA 99%
Signature: BD2E5DACE7B67977550495D6F24C6CFF2A188AEB
FILE: 04 - Joe Car - Dancing Dode.flac
Size: 39621998 Hash: EC71354CDE68CDD7B15852B1FB21B5A3 Accuracy: -m0
Conclusion: CDDA 100%
Signature: 598A32CE82FDF51276613D93469085F22D939C9B
FILE: 05 - Marina - Time For Us.flac
Size: 40399381 Hash: 0C3C62C4A7522131092B4B7DBF4E87C2 Accuracy: -m0
Conclusion: CDDA 99%
Signature: AE2940A4392B75D4E36DE23B9C88932654E44B75
FILE: 06 - Phil Sun - Dancing On The Beach.flac
Size: 39519855 Hash: 3CC18F9697A093CA92275F0EB63C6213 Accuracy: -m0
Conclusion: CDDA 99%
Signature: 6EA0B7127F406BAB02FF26D0CD496336EB887141
FILE: 07 - Big Ben Tribe - Tarzan Loves The Summer Nights.flac
Size: 44603872 Hash: 78C233C9F9884EDFC09B0DE9DA91B474 Accuracy: -m0
Conclusion: CDDA 99%
Signature: 8DAD58B30EBF8B013B5AC5745CB51CBF62BC5460
FILE: 08 - Ryan Dalmini - She's My Love.flac
Size: 40037082 Hash: 33A4B348D65868737146B7678945FA8A Accuracy: -m0
Conclusion: CDDA 99%
Signature: 138B8ABE119A50050FA48763094B5AD148944E52
FILE: 09 - Manuel Kerry - Change Change.flac
Size: 48514747 Hash: 808CDFC89837B5223F6E92B59D803531 Accuracy: -m0
Conclusion: CDDA 100%
Signature: 394FA26659E4B08D334BF2DA6FB8A3027CBD5C0E
FILE: 10 - Steve Barrow - Look Around Me.flac
Size: 37551904 Hash: 7E8698E26BBEC71D5A0F4596F5D780B3 Accuracy: -m0
Conclusion: CDDA 100%
Signature: 47B581A60ACBD5CAB1A2BF33ACB12C6EE5EEF53A
FILE: 11 - Ago - Miracles.flac
Size: 46142160 Hash: A17ECF9BD7C737AAFDF53D308AF1CB88 Accuracy: -m0
Conclusion: CDDA 100%
Signature: CDC41B95FDA27DC33BC1643756C84F726732317A
FILE: 12 - Mono Band - Mr. Crusoe.flac
Size: 43186045 Hash: 86FBF940A2172568FCDAF1626BBAAE19 Accuracy: -m0
Conclusion: CDDA 100%
Signature: EE1884E6C83C4CB0A8B07D0F8A5E591E89D9ACFC
FILE: 13 - Rich David - California O.K..flac
Size: 33470439 Hash: D77A613B59CB1A0B29C79002E00A2C04 Accuracy: -m0
Conclusion: CDDA 100%
Signature: AE93E20B2211A27BE8EFD2288C033F76BC74AC98
(Italo-Disco) [CD] VA - Italo Disco - The Lost Legends, Vol. 1-5 (5 CD) - 2017, FLAC (tracks+.cue), lossless [rutor.su-43299].torrent 
Торрент: Зарегистрирован [ 2023-12-03 11:06 ]

info_hash: 2DE796CB7181529029695ABF01DCD1A25F3A1BB3

Скачать .torrent

Скачать

23 KB

Статус: проверено · MAGNAT · 2 месяца 21 день назад
Скачано: 9 раза
Размер: 2.39 GB
[Профиль] [ЛС]
Показать сообщения:    
Ответить на тему

Текущее время: 24-Фев 19:34

Часовой пояс: UTC ± 0



Вы не можете начинать темы
Вы не можете отвечать на сообщения
Вы не можете редактировать свои сообщения
Вы не можете удалять свои сообщения
Вы не можете голосовать в опросах
Вы не можете прикреплять файлы к сообщениям
Вы можете скачивать файлы

[  Время выполнения: 0.0506 сек  |  MySQL: 0.0153 сек (30%) · 8 запр.  |  сжатие Gzip: выкл  |  Память: 429.85 KB / 2.49 MB / 1.62 MB  ] |  |  |